Лицензия

MVO

1

1 сезон

Лицензия

Лицензия

13

MVO

1 сезон

Deluxe Edition

pack

Рекомендуем

30

Repack

ВАЖНО

ВАЖНО

Ghostwire

RePack

jed

RePack

fifa19

RePack

RDR2

RePack

NEED FOR SPEED™ PAYBACK

RePack

Кинопоиск HD

 Острые козырьки 6 сезон

6 сезон

FAR CRY 6

RePack

Лицензия

MVO

1

1 сезон

1 сезон

Лицензия

  

Вий ( Константин Ершов, Георгий Кропачев) [1967, мистика, экранизация, DVDRip-AVC]

Вий через торрент piratbit.org

Размер: 1 GB | Добавлен: 6 лет назад | Торрент скачан:19 раз
Смотреть онлайн Вий | Скачать   

09-09-2016 23:05 Вий Скачать торрент  

Вий




Год выпуска: 1967
Производство: СССР, Мосфильм
Жанр: мистика, экранизация
Продолжительность: 1:11:56
Субтитры: нет



Режиссёр: Константин Ершов, Георгий Кропачев



В ролях: Леонид Куравлев, Наталья Варлей, Алексей Глазырин, Вадим Захарченко, Николай Кутузов, Петр Вескляров, Дмитрий Капка, Степан Шкурат, Николай Панасьев, Николай Яковченко.




Описание: По одноименной повести великого русского писателя Николая Гоголя.Вий — чудище, взятое из народного воображения. Имея огромные глаза с тяжелыми веками до самой земли, Вий не может ничего видеть сам по себе, но если удастся нескольким силачам поднять ему брови и веки железными вилами, тогда ничего не может утаиться перед грозным его взором: взглядом своим Вий убивает людей, разрушает и обращает в пепел города и деревни.Однажды при таинственных обстоятельствах с ним познакомился главный герой фильма семинарист Хома Брут. В селе умерла молодая панночка, а отпевать ее (отслужить по ней церковную службу) выпало бедному Хоме. Панночка та была ведьмой... Вия со свитой, состоящей из упырей и вурдалаков, Хома увидел в третью, самую страшную, ночь своей службы… Все персонажи этой мистической истории - героиполуфантастического, причудливого мира, где сон пересекается с явью, а реальное с вымышленным.







Качество: DVDRip-AVC
Формат: MKV
Видео кодек: H.264
Аудио кодек: AC3
Видео: MPEG-4 AVC, 720х544,25fps,~1800 Кбит/сек,Bits/Pixel 0.184
Аудио: AC3, 48 kHz, ~192 Kbps, 2 канала



General
Unique ID : 180051099109488818792816239394464382319 (0x877494907908DB5985DC96353F5ABD6F)
Complete name : J:\Вий\Вий_rip by_Aleksan55.mkv
Format : Matroska
Format version : Version 2
File size : 1.00 GiB
Duration : 1h 11mn
Overall bit rate : 1 994 Kbps
Encoded date : UTC 2016-09-09 15:47:30
Writing application : mkvmerge v7.8.0 ('River Man') 32bit built on Apr 3 2015 12:11:22
Writing library : libebml v1.3.1 + libmatroska v1.4.2

Video
ID : 1
Format : AVC
Format/Info : Advanced Video Codec
Format profile : High@L4.1
Format settings, CABAC : Yes
Format settings, ReFrames : 12 frames
Codec ID : V_MPEG4/ISO/AVC
Duration : 1h 11mn
Bit rate : 1 800 Kbps
Width : 720 pixels
Height : 544 pixels
Display aspect ratio : 4:3
Frame rate mode : Constant
Frame rate : 25.000 fps
Color space : YUV
Chroma subsampling : 4:2:0
Bit depth : 8 bits
Scan type : Progressive
Bits/(Pixel*Frame) : 0.184
Stream size : 906 MiB (88%)
Writing library : x264 core 148 r2638 7599210
Encoding settings : cabac=1 / ref=12 / deblock=1:-2:-2 / analyse=0x3:0 / me=umh / subme=9 / psy=1 / psy_rd=1.00:0.25 / mixed_ref=0 / me_range=48 / chroma_me=1 / trellis=2 / 8x8dct=1 / cqm=0 / deadzone=6,6 / fast_pskip=1 / chroma_qp_offset=-4 / threads=4 / lookahead_threads=4 / sliced_threads=0 / nr=0 / decimate=0 / interlaced=0 / bluray_compat=0 / constrained_intra=0 / bframes=12 / b_pyramid=2 / b_adapt=1 / b_bias=0 / direct=3 / weightb=1 / open_gop=0 / weightp=2 / keyint=250 / keyint_min=25 / scenecut=40 / intra_refresh=0 / rc_lookahead=40 / rc=2pass / mbtree=1 / bitrate=1800 / ratetol=1.0 / qcomp=0.80 / qpmin=0 / qpmax=69 / qpstep=4 / cplxblur=20.0 / qblur=0.5 / ip_ratio=1.10 / aq=1:1.20
Default : Yes
Forced : No
Color range : Limited
Color primaries : BT.601 PAL
Transfer characteristics : BT.470 System B, BT.470 System G
Matrix coefficients : BT.601

Audio
ID : 2
Format : AC-3
Format/Info : Audio Coding 3
Mode extension : CM (complete main)
Format settings, Endianness : Big
Codec ID : A_AC3
Duration : 1h 11mn
Bit rate mode : Constant
Bit rate : 192 Kbps
Channel(s) : 2 channels
Channel positions : Front: L R
Sampling rate : 48.0 KHz
Frame rate : 31.250 fps (1536 spf)
Compression mode : Lossy
Stream size : 98.7 MiB (10%)
Default : Yes
Forced : No



Скачать Вий через торрент http://s015.radikal.ru/i332/1609/2e/d356a79adf44.jpg Скачать, смотреть онлайн Вий бесплантно в хорошем качестве Описание: По одноименной повести великого русского писателя Николая Гоголя.Вий — чудище, взятое из народного воображения. Имея огромные ... 8.9 10 8
Info! Золотая раздача, скачанное не засчитывается.
Торрент: Зарегистрирован [2016-09-09 23:05] · скачан: 19 раз
Статус: √ проверено
Размер: 1 GB
Как cкачать? Как скачать Вий через торрент | UTorrent

% Раздел Тема Автор DL S | L
Фильмы (HD 720p, 1080p) (48-60 fps) [ 2.33 GB ] Вий | | 1080p 10 bit 60 FPS dd2d3 Скачать
1 | 0
Кино СССР [ 7.36 GB ] Вий | | 1080p kisa1980 Скачать
1 | 0
Кино СССР [ 4.63 GB ] Вий | | 1080p kisa1980 Скачать
1 | 0
Кино СССР [ 3.27 GB ] Вий | | 720p kisa1980 Скачать
1 | 0
Наши фильмы (HD, WEB-DL 720p, 1080p) [ 9.82 GB ] Вий | | 1080p bober100 Скачать
1 | 0
Фильмы (HD 720p, 1080p) (48-60 fps) [ 4.5 GB ] Вий | | 720p WorldSM Скачать
1 | 0
Наши фильмы (Blu-ray, BD-Remux, HDDVD) [ 19.97 GB ] Вий | | Вий (Георгий Кропачев, Константин Ершов Russian Mafia Скачать
1 | 0

28-11-2019 20:33  

Отключить вcю реклaмy на сайте

10-09-2016 05:14 Вий Скачать торрент  

во крутой фильм,а вот в римейк не советую смотреть ни хера он не страшный наоборот смешной в плохом смысле и очень глупый



10-09-2016 06:46 Вий Скачать торрент  

NoobSmoke писал(а):

во крутой фильм,а вот в римейк не советую смотреть ни хера он не страшный наоборот смешной в плохом смысле и очень глупый

Он ни страшный - да. Его и не хотели страшным сделать) Просто приключенческий фильм. Задача была не напугать, а развлечь зрителя, с чем он и довольно хорошо справился. Я бы его в принципе ремейком и не назвал) Этот фильм по повести сделан, а новый по мотивам) Новый вий не надо воспринимать, как типа экранизация или ремейк. Ну скорей всего может не стоило его Вием называть - это да. А так вполне годный приключенческий фильм)



10-09-2016 07:48 Вий Скачать торрент  

NoobSmoke, Я с тобой согласен!



    Дорогой пользователь! Огромная просьба, поблагодарите релизера, оцените раздачу и оставьте свои комментарий, если Вы скачали Вий через торрент бесплатно!!
    Комментировать посты могут только пользователи прошедшие не сложную регистрацию
    Показать сообщения:    


    Вий через торрент
    Скачать бесплатно Вий
    Вий скачать торрент
    Вий смотреть онлайн
    Cкачать фильм Вий бесплатно
    Вий скачать торрент в хорошем качестве
    Вий смотреть онлайн бесплатно в хорошем качестве
    Вы не можете начинать темы
    Вы не можете отвечать на сообщения
    Вы не можете редактировать свои сообщения
    Вы не можете удалять свои сообщения
    Вы не можете голосовать в опросах
    Вы не можете прикреплять файлы к сообщениям
    Вы можете скачивать файлы