1 сезон

3 сезон

iTunes

1

iTunes

DUB Netflix

iTunes

13

1 сезон

RePack

30

Deluxe

pack

Легкие деньги

ВАЖНО

ИГРА 18+

pack

RePack

MK11

RePack

jed

RePack

fifa19

RePack

RDR2

RePack

NEED FOR SPEED™ PAYBACK

4 сезон

9 сезон

Бесстыжие 9 сезон

Все сериалы

все сериалы на PB.wtf

RePack

FAR CRY 5

Anonymous, доброй ночи, мы не успеваем до 1 числа собрать деньги на оплату серверов, помогите нам пожалуйста в это трудное время. В качестве благодарности мы отключим Вам всю рекламу на сайте (укажите свой ник в строку Ваше имя)!

×
  
Magnet ссылка

Черепашки-ниндзя 2 / Teenage Mutant Ninja Turtles: Out of the Shadows (Дэйв Грин) [2016 г., фантастика, боевик, комедия, приключения, HDRip, Дубляж "BD EUR"] piratbit.org

Черепашки-ниндзя 2 через торрент piratbit.org

Размер: 2.18 GB | Добавлен: 4 года 9 мес. назад | Торрент скачан:135 раз
Скачать  

10-09-2016 12:02 Черепашки-ниндзя 2 Скачать торрент  

Черепашки-ниндзя 2 / Teenage Mutant Ninja Turtles: Out of the Shadows
Год выпуска: 2016
Страна: США, Гонконг, Китай, Канада / Canadian Film or Video Production Tax Credit Program, China Movie Media Group, Gama Entertainment Partners
Жанр: фантастика, боевик, комедия, приключения
Продолжительность: 01:52:07
Перевод: Дубляж (BD EUR)

Режиссер: Дэйв Грин



В ролях: Меган Фокс, Уилл Арнетт, Лора Линни, Стивен Амелл, Ноэль Фишер, Джереми Ховард, Пит Пложек, Алан Ричсон, Тайлер Перри, Брайан Ти

Описание: Долгое время черепашки-ниндзя скрывались от людей в лабиринтах городской канализации. На протяжении нескольких лет учитель Сплинтер обучал их боевым искусствам и прививал им чувство справедливости. В один прекрасный момент им пришлось подняться наверх, чтобы спасти Нью-Йорк от Шредера, предводителя Клана Футов, захватившего Влacть в Нью-Йорке. Вместе с отважным репортером Эйприл и ее оператором Верном, бесстрашные воины смогли одержать победу и очистить любимый город от преступности. Леонардо, Микеланджело, Рафаэль и Донателло нашли свое предназначение в этом мире и стали защитниками своего города. Они навели порядок в Нью-Йорке и с чистой совестью могли отправиться на покой, но однажды им вновь пришлось столкнуться с могущественным врагом, угрожающим их городу.

Качество: HDRip
Формат: AVI
Видео кодек: XviD
Аудио кодек: AC3
Видео: 720x304 (2.37:1), 23.976 fps, XviD build 50 ~2326 kbps avg, 0.44 bit/pixel
Аудио: 48 kHz, AC3 Dolby Digital, 3/2 (L,C,R,l,r) + LFE ch, ~448 kbps

Общее
Полное имя : F:\кино\Черепашки-ниндзя 2.2016.D.HDRip.avi
Формат : AVI
Формат/Информация : Audio Video Interleave
Профиль формата : OpenDML
Размер файла : 2,18 Гбайт
Продолжительность : 1 ч. 52 м.
Общий поток : 2781 Кбит/сек
Программа кодирования : VirtualDubMod 1.5.10.3 | www.virtualdub-fr.org || (build 2550/release)
Библиотека кодирования : VirtualDubMod build 2550/release

Видео
Идентификатор : 0
Формат : MPEG-4 Visual
Профиль формата : Advanced Simple@L5
Параметр BVOP формата : 1
Параметр QPel формата : Нет
Параметр GMC формата : Без точки перехода
Параметр матрицы формата : Default (MPEG)
Идентификатор кодека : XVID
Идентификатор кодека/Подсказка : XviD
Продолжительность : 1 ч. 52 м.
Битрейт : 2321 Кбит/сек
Ширина : 720 пикселей
Высота : 304 пикселя
Соотношение сторон : 2,35:1
Частота кадров : 23,976 (23976/1000) кадра/сек
Цветовое пространство : YUV
Субдискретизация насыщенности : 4:2:0
Битовая глубина : 8 бит
Тип развёртки : Прогрессивная
Метод сжатия : С потерями
Бит/(Пиксели*Кадры) : 0.442
Размер потока : 1,82 Гбайт (83%)
Библиотека кодирования : XviD 1.2.1 (UTC 2008-12-04)

Аудио
Идентификатор : 1
Формат : AC-3
Формат/Информация : Audio Coding 3
Расширение режима : CM (complete main)
Параметр Endianness формата : Big
Идентификатор кодека : 2000
Продолжительность : 1 ч. 52 м.
Вид битрейта : Постоянный
Битрейт : 448 Кбит/сек
Каналы : 6 каналов
Расположение каналов : Front: L C R, Side: L R, LFE
Частота : 48,0 КГц
Частота кадров : 31,250 кадров/сек (1536 spf)
Метод сжатия : С потерями
Размер потока : 359 Мбайт (16%)
Выравнивание : Разделение по промежуткам
Продолжительность промежутка : 42 мс. (1,00 видеокадр)
Время предзагрузки промежутка : 500 мс.

piratbit.org



Скачать Черепашки-ниндзя 2 через торрент https://pic.kartinco.top/images/11/lq7lt.jpg Скачать фильм Черепашки-ниндзя 2 через торрент бесплантно в хорошем качестве Описание: Долгое время черепашки-ниндзя скрывались от людей в лабиринтах городской канализации. На протяжении нескольких лет учитель ... 10 10 2
Торрент: Зарегистрирован [2016-09-10 12:02] · скачан: 135 раз
Статус: √ проверено
Размер: 2.18 GB
Как cкачать? Как скачать Черепашки-ниндзя 2 через торрент | UTorrent

% Раздел Тема Автор DL S | L
Фильмы [HD 720p, 1080p] (Хороший звук DUB, MVO) [ 7.37 GB ] Черепашки-ниндзя 2 / Teenage Mutant Ninja Turtles: Out of the Shadows [2016 BDRip-HEVC 1080p] DUB [] bober100 Скачать
1 | 0
Ultra HD (UHD: 2K, 4K, 8K) — видео сверхвысокой чёткости [ 59.98 GB ] Черепашки-ниндзя 2 / Teenage Mutant Ninja Turtles: Out of the Shadows [2016 UHD BDRemux 2160p] 2xAVO+DUB [] bober100 Скачать
1 | 0
Ultra HD (UHD: 2K, 4K, 8K) — видео сверхвысокой чёткости [ 64.44 GB ] Черепашки-ниндзя 2 / Teenage Mutant Ninja Turtles: Out of the Shadows [2016 UHD Blu-ray 2160p] 2xAVO+DUB [] bober100 Скачать
1 | 0
3D Фильмы [ 16.29 GB ] Черепашки-ниндзя 2 в 3D / Teenage Mutant Ninja Turtles: Out of the Shadows 3D [2016 3D BDRip 1080p] / Half OverUnder sheker187 Скачать
1 | 0
Ultra HD (UHD: 2K, 4K, 8K) — видео сверхвысокой чёткости [ 51.76 GB ] Черепашки-ниндзя 2 / Teenage Mutant Ninja Turtles: Out of the Shadows [2016 UHDWEBRip 2160p] - [] sheker187 Скачать
1 | 0
Фильмы (HD 720p, 1080p) (48-60 fps) [ 6.1 GB ] Черепашки-ниндзя 2 / Teenage Mutant Ninja Turtles: Out of the Shadows [2016 BDRip 720p 60 fps от еnvy / NNNB] DUB еnvy Скачать
2 | 0
T Релизы по Парсеру [Игры, Сериалы и Фильмы и другое...] [ 746 MB ] Черепашки-ниндзя 2 / Teenage Mutant Ninja Turtles: Out of the Shadows WEB-DLRip от MegaPeer / Ворон Скачать
1 | 0

28-11-2019 20:33  

Отключить всю рекламу на сайте

20-09-2016 13:02 Черепашки-ниндзя 2 Скачать торрент  

смотреть можно)piratbit.org



    Дорогой пользователь! Огромная просьба, поблагодарите релизера, оцените раздачу и оставьте свои комментарий, если Вы скачали Черепашки-ниндзя 2 через торрент бесплатно! Внесите свою лепту в развитие PiratBit!
    Комментировать посты могут только пользователи прошедшие не сложную регистрацию
    Показать сообщения:    

    Черепашки-ниндзя 2 через торрент
    Скачать бесплатно Черепашки-ниндзя 2
    Черепашки-ниндзя 2 скачать торрент
    Черепашки-ниндзя 2 смотреть онлайн
    Cкачать фильм Черепашки-ниндзя 2 бесплатно
    Черепашки-ниндзя 2 скачать торрент в хорошем качестве
    Черепашки-ниндзя 2 смотреть онлайн бесплатно в хорошем качестве


    Вы не можете начинать темы
    Вы не можете отвечать на сообщения
    Вы не можете редактировать свои сообщения
    Вы не можете удалять свои сообщения
    Вы не можете голосовать в опросах
    Вы не можете прикреплять файлы к сообщениям
    Вы можете скачивать файлы