1 сезон

3 сезон

iTunes

1

iTunes

DUB Netflix

iTunes

13

1 сезон

RePack

30

Deluxe

pack

Легкие деньги

ВАЖНО

ИГРА 18+

pack

RePack

MK11

RePack

jed

RePack

fifa19

RePack

RDR2

RePack

NEED FOR SPEED™ PAYBACK

4 сезон

9 сезон

Бесстыжие 9 сезон

Все сериалы

все сериалы на PB.wtf

RePack

FAR CRY 5

Anonymous, добрый день, мы не успеваем до 1 числа собрать деньги на оплату серверов, помогите нам пожалуйста в это трудное время. В качестве благодарности мы отключим Вам всю рекламу на сайте (укажите свой ник в строку Ваше имя)!

×
  
Magnet ссылка

Варкрафт / Warcraft (Дункан Джонс ) [2016, фэнтези, боевик, приключения, BDRip-AVC, от potroks] Dub [ iTunes] piratbit.org

Варкрафт через торрент piratbit.org

Размер: 3.32 GB | Добавлен: 4 года 9 мес. назад | Торрент скачан:209 раз
Скачать  

11-09-2016 05:32 Варкрафт Скачать торрент  

Варкрафт / Warcraft

Год выпуска: 2016
Страна: Китай, Канада, Япония, США / Universal Pictures, Legendary Pictures...
Жанр: фэнтези, боевик, приключения
Продолжительность: 02:03:06
Перевод: Дубляж [iTunes]
Субтитры: русские, английские (Full + SDH)
Навигация по главам: есть
Режиссер: Дункан Джонс
В ролях:

Трэвис Фиммел (Anduin Lothar), Пола Пэттон (Garona), Бен Фостер (Medivh), Доминик Купер (Llane Wrynn), Тоби Кеббелл (Durotan / Antonidas), Бен Шнетцер (Khadgar), Роберт Казински (Orgrim), Клэнси Браун (Blackhand), Дэниэл Ву (Gul'dan), Рут Негга (Lady Taria), Анна Галвин (Draka), Каллум Кит Ренни (Moroes)
Описание: Веками магия и неприступные стены защищали людей от любых напастей. Но древнее зло, побежденное и забытое тысячелетия назад, пробудилось.

Качество: BDRip-AVC
Формат: MKV
Видео: AVC, 1040x428 (2,40:1), 3025 kbps, 23,976 fps, 0.283 bpp
Аудио#1: AC3 / 5.1 / 48 kHz / 384 kbps / 16 bit | RUS
Аудио#2: AC3 / 5.1 / 48 kHz / 448 kbps / 16 bit | ENG

Код:

Общее
Уникальный идентификатор : 242941517327126740199533070288695138500 (0xB6C4D594641EAF01858753EFE93918C4)
Полное имя : F:\Фэнтези\Varkraft.2016.DUAL.BDRip.x264.-HELLYWOOD.mkv
Формат : Matroska
Версия формата : Version 4 / Version 2
Размер файла : 3,32 Гбайт
Продолжительность : 2 ч. 3 м.
Общий поток : 3859 Кбит/сек
Название фильма : Warcraft (2016)
Дата кодирования : UTC 2016-09-11 04:56:18
Программа кодирования : mkvmerge v5.9.0 ('On The Loose') built on Dec 15 2012 16:39:58
Библиотека кодирования : libebml v1.3.0 + libmatroska v1.4.0

Видео
Идентификатор : 1
Формат : AVC
Формат/Информация : Advanced Video Codec
Профиль формата : High@L4.1
Параметр CABAC формата : Да
Параметр ReFrames формата : 10 кадров
Идентификатор кодека : V_MPEG4/ISO/AVC
Продолжительность : 2 ч. 3 м.
Битрейт : 3025 Кбит/сек
Ширина : 1040 пикселей
Высота : 428 пикселей
Соотношение сторон : 2,40:1
Режим частоты кадров : Постоянный
Частота кадров : 23,976 кадра/сек
Цветовое пространство : YUV
Субдискретизация насыщенности : 4:2:0
Битовая глубина : 8 бит
Тип развёртки : Прогрессивная
Бит/(Пиксели*Кадры) : 0.283
Размер потока : 2,54 Гбайт (76%)
Заголовок : potroks
Библиотека кодирования : x264 core 146 r2538 121396c
Настройки программы : cabac=1 / ref=10 / deblock=1:-2:-2 / analyse=0x3:0x113 / me=umh / subme=11 / psy=1 / psy_rd=1.00:0.10 / mixed_ref=1 / me_range=48 / chroma_me=1 / trellis=2 / 8x8dct=1 / cqm=0 / deadzone=21,11 / fast_pskip=0 / chroma_qp_offset=-3 / threads=9 / lookahead_threads=2 / sliced_threads=0 / nr=0 / decimate=0 / interlaced=0 / bluray_compat=0 / constrained_intra=0 / bframes=11 / b_pyramid=2 / b_adapt=2 / b_bias=0 / direct=3 / weightb=1 / open_gop=0 / weightp=2 / keyint=240 / keyint_min=23 / scenecut=40 / intra_refresh=0 / rc_lookahead=60 / rc=2pass / mbtree=0 / bitrate=3025 / ratetol=1.0 / qcomp=0.70 / qpmin=0 / qpmax=69 / qpstep=4 / cplxblur=20.0 / qblur=0.5 / vbv_maxrate=14000 / vbv_bufsize=14000 / nal_hrd=none / filler=0 / ip_ratio=1.40 / pb_ratio=1.30 / aq=1:0.80
Язык : English
Default : Да
Forced : Нет

Аудио #1
Идентификатор : 2
Формат : AC-3
Формат/Информация : Audio Coding 3
Расширение режима : CM (complete main)
Параметр Endianness формата : Big
Идентификатор кодека : A_AC3
Продолжительность : 2 ч. 3 м.
Вид битрейта : Постоянный
Битрейт : 384 Кбит/сек
Каналы : 6 каналов
Расположение каналов : Front: L C R, Side: L R, LFE
Частота : 48,0 КГц
Частота кадров : 31,250 кадров/сек (1536 spf)
Метод сжатия : С потерями
Размер потока : 338 Мбайт (10%)
Заголовок : Dub | DD 5.1 @ 384 kbps - iTunes
Язык : Russian
Default : Да
Forced : Нет

Аудио #2
Идентификатор : 3
Формат : AC-3
Формат/Информация : Audio Coding 3
Расширение режима : CM (complete main)
Параметр Endianness формата : Big
Идентификатор кодека : A_AC3
Продолжительность : 2 ч. 3 м.
Вид битрейта : Постоянный
Битрейт : 448 Кбит/сек
Каналы : 6 каналов
Расположение каналов : Front: L C R, Side: L R, LFE
Частота : 48,0 КГц
Частота кадров : 31,250 кадров/сек (1536 spf)
Метод сжатия : С потерями
Размер потока : 394 Мбайт (12%)
Заголовок : Original | DD 5.1 @ 448 kbps
Язык : English
Default : Нет
Forced : Нет

Текст #1
Идентификатор : 4
Формат : UTF-8
Идентификатор кодека : S_TEXT/UTF8
Идентификатор кодека/Информация : UTF-8 Plain Text
Язык : Russian
Default : Нет
Forced : Нет

Текст #2
Идентификатор : 5
Формат : UTF-8
Идентификатор кодека : S_TEXT/UTF8
Идентификатор кодека/Информация : UTF-8 Plain Text
Заголовок : Full
Язык : English
Default : Нет
Forced : Нет

Текст #3
Идентификатор : 6
Формат : UTF-8
Идентификатор кодека : S_TEXT/UTF8
Идентификатор кодека/Информация : UTF-8 Plain Text
Заголовок : SDH
Язык : English
Default : Нет
Forced : Нет

Меню
00:00:00.000 : en:(01)00:00:00:000
00:09:26.482 : en:(02)00:09:26:482
00:15:49.407 : en:(03)00:15:49:407
00:22:36.146 : en:(04)00:22:36:146
00:29:16.171 : en:(05)00:29:16:171
00:38:43.321 : en:(06)00:38:43:321
00:46:44.093 : en:(07)00:46:44:093
00:53:02.679 : en:(08)00:53:02:679
00:56:17.332 : en:(09)00:56:17:332
01:02:43.927 : en:(10)01:02:43:927
01:07:48.314 : en:(11)01:07:48:314
01:12:24.549 : en:(12)01:12:24:549
01:17:13.045 : en:(13)01:17:13:045
01:22:45.669 : en:(14)01:22:45:669
01:26:32.145 : en:(15)01:26:32:145
01:32:29.669 : en:(16)01:32:29:669
01:40:25.102 : en:(17)01:40:25:102
01:47:38.118 : en:(18)01:47:38:118
01:51:12.833 : en:(19)01:51:12:833
01:53:58.832 : en:(20)01:53:58:832

piratbit.org



Скачать Варкрафт через торрент http://i85.fastpic.ru/big/2016/0911/d3/abfd9e131e940ec31ea779ea11dbc7d3.png Скачать фильм Варкрафт через торрент бесплантно в хорошем качестве Описание: Веками магия и неприступные стены защищали людей от любых напастей. Но древнее зло, побежденное и забытое тысячелетия назад, ... 8.9 10 9
Info! Золотая раздача, скачанное не засчитывается.
Торрент: Зарегистрирован [2016-09-11 05:32] · скачан: 209 раз
Статус: √ проверено
Размер: 3.32 GB
Как cкачать? Как скачать Варкрафт через торрент | UTorrent

% Раздел Тема Автор DL S | L
Фильмы (HD 720p, 1080p) (48-60 fps) [ 16.46 GB ] Варкрафт / Warcraft [2016 BDRip 1080p 60fps Dub MVO AVO VO Original] Tiberiumsun69 Скачать
1 | 0
Фильмы (HD 720p, 1080p) (48-60 fps) [ 4.86 GB ] Варкрафт / Warcraft [2016 BDRip - HEVC 1080p 10 bit 60 FPS] DUB [] dd2d3 Скачать
2 | 0
MMORPG [ 27.85 GB ] World of Warcraft: Warlords of Draenor / Мир Варкрафта - Владыки Дренора [Пиратка RUS / ENG] Tarelkin Скачать
1 | 1
Фильмы [HD 720p, 1080p] (Хороший звук DUB, MVO) [ 4.47 GB ] Варкрафт / Warcraft [2016 BDRip 1080p HEVC ()] Мичман37 Скачать
1 | 0
Фильмы [HD 720p, 1080p] (Хороший звук DUB, MVO) [ 7.95 GB ] Варкрафт / Warcraft [2016 BDRip 1080p от еnvy / NNNB] еnvy Скачать
1 | 0
Фильмы с авторской озвучкой [ 1.46 GB ] Варкрафт / Warcraft [2016 BDRip] [AVO] killermax2013 Скачать
1 | 0
Ultra HD (UHD: 2K, 4K, 8K) — видео сверхвысокой чёткости [ 70.4 GB ] Варкрафт / Warcraft [2016 UHD BDRemux 2160p] DUB + MVO + 4xAVO sheker187 Скачать
2 | 0

28-11-2019 20:33  

Отключить всю рекламу на сайте


11-09-2016 06:16 Варкрафт Скачать торрент  

А что мешало сам файл назвать нормально? Сейчас там "varkraft".piratbit.org



    Дорогой пользователь! Огромная просьба, поблагодарите релизера, оцените раздачу и оставьте свои комментарий, если Вы скачали Варкрафт через торрент бесплатно! Внесите свою лепту в развитие PiratBit!
    Комментировать посты могут только пользователи прошедшие не сложную регистрацию
    Показать сообщения:    

    Варкрафт через торрент
    Скачать бесплатно Варкрафт
    Варкрафт скачать торрент
    Варкрафт смотреть онлайн
    Cкачать фильм Варкрафт бесплатно
    Варкрафт скачать торрент в хорошем качестве
    Варкрафт смотреть онлайн бесплатно в хорошем качестве


    Вы не можете начинать темы
    Вы не можете отвечать на сообщения
    Вы не можете редактировать свои сообщения
    Вы не можете удалять свои сообщения
    Вы не можете голосовать в опросах
    Вы не можете прикреплять файлы к сообщениям
    Вы можете скачивать файлы