1 сезон

3 сезон

iTunes

1

iTunes

DUB Netflix

iTunes

13

1 сезон

RePack

30

Deluxe

pack

Легкие деньги

ВАЖНО

ИГРА 18+

pack

RePack

MK11

RePack

jed

RePack

fifa19

RePack

RDR2

RePack

NEED FOR SPEED™ PAYBACK

4 сезон

9 сезон

Бесстыжие 9 сезон

Все сериалы

все сериалы на PB.wtf

RePack

FAR CRY 5

Anonymous, доброй ночи, мы не успеваем до 1 числа собрать деньги на оплату серверов, помогите нам пожалуйста в это трудное время. В качестве благодарности мы отключим Вам всю рекламу на сайте (укажите свой ник в строку Ваше имя)!

×
  
Magnet ссылка

Самый крутой день / Der geilste Tag (Флориан Давид Фиц) [2016, комедия, драма, WEB-DLRip, Любительский (многоголосый) [ViruseProject] piratbit.org

Самый крутой день через торрент piratbit.org

Размер: 1.46 GB | Добавлен: 4 года 9 мес. назад | Торрент скачан:656 раз
Скачать  

11-09-2016 08:42 Самый крутой день Скачать торрент  


Самый крутой день / Der geilste Tag


ИНФОРМАЦИЯ:
Год выпуска:2016
Страна: Германия
Жанр: комедия, драма
Продолжительность: 01:53:48
Перевод: Любительский (многоголосый) [ViruseProject]
Режиссер: Флориан Давид Фиц

В Ролях:


Маттиас Швайгхёфер (Andi), Флориан Давид Фиц (Benno), Райнер Бок (Dr. Wüst), Lars Doppler (Pilot), Andreas Dubois (Rental car dealer), Jackie Hill (Waitress in Café), Александра Мария Лара (Mona), Frederic Linkemann (Polizist Frederic), Robert Nickisch (Pfleger Reiner), Кэролайн Рэпп (L. Gottschall), Роберт Шупп (Anwalt), Татя Зайбт

Описание:
Капризный и чрезмерно амбициозный пианист Анди и живущий каждым днём Бенно схожи только в одном: они оба скоро умрут. Не желая оставаться в хосписе, перед смертью они решают пережить лучший день своей жизни. Обманным путём получив деньги в банке, они отправляются в путешествие в Африку. Для обоих больных поездка становится настоящим вызовом, а одному из них предстоит впервые столкнуться со своим прошлым. Хотя путешествие и хранит в себе опасности, через ряд забавных и трагических моментов герои достигают своей цели: переживают лучший день своей жизни, а главное осознают - человек сам пишет историю своей жизни.

  • Мировая премьера:25 февраля 2016

    ТЕХ.ДАННЫЕ:
    Качество: WEB-DLRip
    Формат: AVI
    Видео: XviD, 720x304 (2.35:1), 1567 kbps, 23,976 fps, 0,299 bpp
    Аудио: AC3 / 2.0 / 48 kHz / 192 kbps /


    General
    Complete name : W:\Торенты\Der.geilste.tag.2016.ViruseProject.avi
    Format : AVI
    Format/Info : Audio Video Interleave
    File size : 1.46 GiB
    Duration : 1 h 53 min
    Overall bit rate : 1 841 kb/s
    Writing library : VirtualDub build 35491/release

    Video
    ID : 0
    Format : MPEG-4 Visual
    Format profile : Advanced Simple@L5
    Format settings, BVOP : 1
    Format settings, QPel : No
    Format settings, GMC : No warppoints
    Format settings, Matrix : Default (MPEG)
    Codec ID : XVID
    Codec ID/Hint : XviD
    Duration : 1 h 53 min
    Bit rate : 1 567 kb/s
    Width : 720 pixels
    Height : 304 pixels
    Display aspect ratio : 2.35:1
    Frame rate : 23.976 (23976/1000) FPS
    Color space : YUV
    Chroma subsampling : 4:2:0
    Bit depth : 8 bits
    Scan type : Progressive
    Compression mode : Lossy
    Bits/(Pixel*Frame) : 0.299
    Stream size : 1.25 GiB (85%)
    Writing library : XviD 1.2.1 (UTC 2008-12-04)

    Audio
    ID : 1
    Format : AC-3
    Format/Info : Audio Coding 3
    Mode extension : CM (complete main)
    Format settings, Endianness : Big
    Codec ID : 2000
    Duration : 1 h 53 min
    Bit rate mode : Constant
    Bit rate : 192 kb/s
    Channel(s) : 2 channels
    Channel positions : Front: L R
    Sampling rate : 48.0 kHz
    Frame rate : 31.250 FPS (1536 spf)
    Compression mode : Lossy
    Stream size : 156 MiB (10%)
    Alignment : Aligned on interleaves
    Скриншоты:

    © Оформление by .::Ворон::.
    piratbit.org



  • Скачать Самый крутой день через торрент https://pic1.kartinco.top/images/61/ordi9.jpg Скачать фильм Самый крутой день через торрент бесплантно в хорошем качестве Описание: Капризный и чрезмерно амбициозный пианист Анди и живущий каждым днём Бенно схожи только в одном: они оба скоро умрут. Не желая ... 9.8 10 10
    Торрент: Зарегистрирован [2016-09-11 08:42] · скачан: 656 раз
    Статус: T временная
    Размер: 1.46 GB
    Как cкачать? Как скачать Самый крутой день через торрент | UTorrent

    % Раздел Тема Автор DL S | L
    R.G. Resident & PiratVoice - Фильмы, Видео [ 2.33 GB ] Самый крутой день / Der geilste Tag [2016 BDRip-AVC Авторский Антон Карповский] R.G.Resident schultz Скачать
    1 | 0
    T Фильмы (WEB-DL 720p, 1080p) [ 3.07 GB ] Самый крутой день / Der geilste Tag [2016 WEB-DL 720p Любительский [ViruseProject] Ворон Скачать
    1 | 0

    28-11-2019 20:33  

    Отключить всю рекламу на сайте

    11-09-2016 13:51 Самый крутой день Скачать торрент  

    По стопам Достучаться до небес ? И производство опять Германское.
    Вот снимали бы своё любимое про сантехников и домохозяек, наверняка ведь хрень получилась.piratbit.org



    11-09-2016 18:00 Самый крутой день Скачать торрент  

    Bobr751 писал(а):

    По стопам Достучаться до небес ? И производство опять Германское.
    Вот снимали бы своё любимое про сантехников и домохозяек, наверняка ведь хрень получилась.

    абсолютно верно одно, да "достучаться до небес", но я не пожалел времени на просмотр. мне понравилосьpiratbit.org



    11-09-2016 19:33 Самый крутой день Скачать торрент  

    Надеюсь конечно, Спасибо за отзыв.piratbit.org



      Дорогой пользователь! Огромная просьба, поблагодарите релизера, оцените раздачу и оставьте свои комментарий, если Вы скачали Самый крутой день через торрент бесплатно! Внесите свою лепту в развитие PiratBit!
      Комментировать посты могут только пользователи прошедшие не сложную регистрацию
      Показать сообщения:    

      Самый крутой день через торрент
      Скачать бесплатно Самый крутой день
      Самый крутой день скачать торрент
      Самый крутой день смотреть онлайн
      Cкачать фильм Самый крутой день бесплатно
      Самый крутой день скачать торрент в хорошем качестве
      Самый крутой день смотреть онлайн бесплатно в хорошем качестве


      Вы не можете начинать темы
      Вы не можете отвечать на сообщения
      Вы не можете редактировать свои сообщения
      Вы не можете удалять свои сообщения
      Вы не можете голосовать в опросах
      Вы не можете прикреплять файлы к сообщениям
      Вы можете скачивать файлы