Лицензия

MVO

1

1 сезон

Лицензия

Лицензия

13

MVO

1 сезон

Deluxe Edition

pack

Рекомендуем

30

Repack

ВАЖНО

ВАЖНО

Ghostwire

RePack

jed

RePack

fifa19

RePack

RDR2

RePack

NEED FOR SPEED™ PAYBACK

RePack

Кинопоиск HD

 Острые козырьки 6 сезон

6 сезон

FAR CRY 6

RePack

Лицензия

MVO

1

1 сезон

1 сезон

Лицензия

  

Чужая родня (Михаил Швейцер) [1955, СССР, драма, мелодрама, DVDRip от AVP Studio]

Чужая родня через торрент piratbit.org

Размер: 744 MB | Добавлен: 6 лет назад | Торрент скачан:16 раз
Смотреть онлайн Чужая родня | Скачать   

11-09-2016 08:48 Чужая родня Скачать торрент  

Чужая родня
Страна: СССР
Производство: Ленфильм

Жанр: драма, мелодрама
Год выпуска: 1955
Продолжительность: 01:33:27

Перевод: Не требуется
Cубтитры: нет
Оригинальная аудиодорожка: русский

Режиссер: Михаил Швейцер

В ролях:
Николай Рыбников, Нонна Мордюкова, Николай Сергеев, Александра Денисова, Елена Максимова, Степан Крылов, Любовь Малиновская, Майя Забулис, Леонид Кмит, Владимир Гуляев, Юрий Соловьёв, Геннадий Юхтин, Елена Вольская...
Полный список актёров

Описание:
По повести В.Тендрякова "Не ко двору".
После женитьбы Федор, механизатор и первый парень на деревне, стал задыхаться в мещанском мирке родителей жены. Между молодыми все чаще возникают ссоры, куда вмешиваются старики. Федор уходит из дома.
Первые роли в кино Геннадия Юхтина (Вася-гармонист) и Любови Малиновской (Пелагея).

Источник: DVD5 R5
Качество видео: DVDRip
Формат видео: AVI

Видео: 576x432 (4:3), 25 fps, XviD ~ 975 kbps avg, 0.157 bit/pixel
Аудио: 48 kHz, MP3 2.0, 128 kbps

Раздача от:
Общее
Полное имя : Chuzhaya.rodnya.1955.DVDRip-745_[New-team]_by_AVP_Studio.avi
Формат : AVI
Формат/Информация : Audio Video Interleave
Размер файла : 744 Мбайт
Продолжительность : 1 ч. 33 м.
Общий поток : 1113 Кбит/сек
Программа кодирования : VirtualDubMod 1.5.10.3 | www.virtualdub-fr.org || (build 2550/release)
Библиотека кодирования : VirtualDubMod build 2550/release

Видео
Идентификатор : 0
Формат : MPEG-4 Visual
Профиль формата : Advanced Simple@L5
Параметр BVOP формата : 1
Параметр QPel формата : Нет
Параметр GMC формата : Без точки перехода
Параметр матрицы формата : Выборочная
Идентификатор кодека : XVID
Идентификатор кодека/Подсказка : XviD
Продолжительность : 1 ч. 33 м.
Битрейт : 975 Кбит/сек
Ширина : 576 пикселей
Высота : 432 пикселя
Соотношение сторон : 4:3
Частота кадров : 25,000 кадров/сек
Цветовое пространство : YUV
Субдискретизация насыщенности : 4:2:0
Битовая глубина : 8 бит
Тип развёртки : Прогрессивная
Метод сжатия : С потерями
Бит/(Пиксели*Кадры) : 0.157
Размер потока : 652 Мбайт (88%)
Библиотека кодирования : XviD 1.2.1 (UTC 2008-12-04)

Аудио
Идентификатор : 1
Формат : MPEG Audio
Версия формата : Version 1
Профиль формата : Layer 3
Идентификатор кодека : 55
Идентификатор кодека/Подсказка : MP3
Продолжительность : 1 ч. 33 м.
Вид битрейта : Постоянный
Битрейт : 128 Кбит/сек
Каналы : 2 канала
Частота : 48,0 КГц
Метод сжатия : С потерями
Размер потока : 85,5 Мбайт (12%)
Выравнивание : Соединение по промежуткам
Продолжительность промежутка : 40 мс. (1,00 видеокадр)
Время предзагрузки промежутка : 504 мс.
Библиотека кодирования : LAME3.99r
Настройки программы : -m s -V 4 -q 2 -lowpass 17 -b 128



Скачать Чужая родня через торрент http://s50.radikal.ru/i129/1609/2a/fdbe45724f64.png Скачать, смотреть онлайн Чужая родня бесплантно в хорошем качестве Описание:По повести В.Тендрякова "Не ко двору".После женитьбы Федор, механизатор и первый парень на деревне, стал задыхаться в мещанском ... 10 10 1
Info! Золотая раздача, скачанное не засчитывается.
Торрент: Зарегистрирован [2016-09-11 08:48] · скачан: 16 раз
Статус: √ проверено
Размер: 744 MB
Как cкачать? Как скачать Чужая родня через торрент | UTorrent

% Раздел Тема Автор DL S | L
Кино СССР [ 1.46 GB ] Чужая родня | | DVDRip-AVC от AVP Studio AVP Studio Скачать
5 | 2
Кино СССР [ 1.46 GB ] Чужая родня | | DVDRip от AVP Studio AVP Studio Скачать
1 | 0

28-11-2019 20:33  

Отключить вcю реклaмy на сайте

    Дорогой пользователь! Огромная просьба, поблагодарите релизера, оцените раздачу и оставьте свои комментарий, если Вы скачали Чужая родня через торрент бесплатно!!
    Комментировать посты могут только пользователи прошедшие не сложную регистрацию
    Показать сообщения:    


    Чужая родня через торрент
    Скачать бесплатно Чужая родня
    Чужая родня скачать торрент
    Чужая родня смотреть онлайн
    Cкачать фильм Чужая родня бесплатно
    Чужая родня скачать торрент в хорошем качестве
    Чужая родня смотреть онлайн бесплатно в хорошем качестве
    Вы не можете начинать темы
    Вы не можете отвечать на сообщения
    Вы не можете редактировать свои сообщения
    Вы не можете удалять свои сообщения
    Вы не можете голосовать в опросах
    Вы не можете прикреплять файлы к сообщениям
    Вы можете скачивать файлы