Доктор Стрэндж

Лицензия

Добыча

Дубляж

Дом дракона

1 сезон

Тор

Дубляж

В эфире

Дубляж

Там, где раки поют

MVO

Властелин колец

1 сезон

Deluxe

pack

Рекомендуем

30

Пиратка

ВАЖНО

ВАЖНО

Ghostwire

Пиратка

jed

RePack

nioh2

RePack

RDR2

RePack

NEED FOR SPEED™ PAYBACK

RePack

скачать торрент

Кинопоиск HD

Острые козырьки 6 сезон

6 сезон

FAR CRY 6

RePack

скачать торрент

Лицензия

скачать торрент

MVO

1

1 сезон

скачать торрент

1 сезон

скачать торрент

Лицензия

  

Спящий голос / La voz dormida (Бенито Самбрано) [2011, драма, военный, BDRip 720p ] VO

Спящий голос через торрент piratbit.org

Размер: 5.07 GB | Добавлен: 6 лет 2 мес. назад | Торрент скачан:22 раза
Смотреть онлайн | Скачать   

11-09-2016 11:47 Спящий голос Скачать торрент  

Название: Спящий голос
Оригинальное название: La voz dormida
Год выпуска: 2011
Страна: Испания
Жанр: драма, военный
Продолжительность: 02:03:18
Перевод: любительский одноголосый

Режиссёр: Бенито Самбрано

В ролях: Мария Леон, Инма Куэста, Хавьер Годино, Фэни Де Кастро, Ана Вагенер, Марк Клотет, Сьюзи Санчез, Дэнни Холгин, Хавьер Мора, Берта Охеа

Описание: История двух сестёр в смутный период сразу же после завершения гражданской войны в Испании. Младшая из них Пепита, простоватая девушка из окрестностей Кордовы, отправляется в Мадрид, чтобы быть рядом со своей сестрой Гортензией, которая находится в тюрьме и ждёт ребёнка. За участие в движении Сопротивления и связь с его харизматичным лидером Фелипе Гортензия осуждена на смерть, но исполнение приговора отложено до родов. Пепита устраивается горничной в богатом доме и, в тоже время, связывается с прячущимися в горах повстанцами. Там она влюбляется в одного из их лидеров красавца Паулино. Пепита стремится любой ценой оттянуть казнь, тогда как Гортензия со своими сокамерницами пытаются не допустить того, чтобы её родившийся ребёнок был отдан в приют...



Качество: BDRip 720p Сравнение с исходником
Формат: MKV
Видео: MPEG-4 AVC, 5053 Кбит/с, 1280x546, 24 кадра/с
Аудио 1: русский, AC3, 384 kbps, 6 ch, 48 kHz [любительский одноголосый, Serg Tex]
Аудио 2: испанский, AC3, 448 kbps, 6 ch, 48 kHz [оригинал]
Субтитры 1: русские
Субтитры 2: английские
Общее
Уникальный идентификатор : 202025656417752606845804102049542356026 (0x97FCB9E331781BA7BF97140F1DF6BC3A)
Полное имя : D:\Video\Спящий голос.2011.BDRip.720p.mkv
Формат : Matroska
Версия формата : Version 4 / Version 2
Размер файла : 5,07 Гбайт
Продолжительность : 2 ч. 3 м.
Общий поток : 5887 Кбит/сек
Дата кодирования : UTC 2016-09-11 11:47:31
Программа кодирования : mkvmerge v8.2.0 ('World of Adventure') 64bit
Библиотека кодирования : libebml v1.3.1 + libmatroska v1.4.2

Видео
Идентификатор : 1
Формат : AVC
Формат/Информация : Advanced Video Codec
Профиль формата : High@L4.1
Параметр CABAC формата : Да
Параметр ReFrames формата : 9 кадров
Идентификатор кодека : V_MPEG4/ISO/AVC
Продолжительность : 2 ч. 3 м.
Битрейт : 5053 Кбит/сек
Ширина : 1280 пикселей
Высота : 546 пикселей
Соотношение сторон : 2,35:1
Режим частоты кадров : Постоянный
Частота кадров : 24,000 кадра/сек
Цветовое пространство : YUV
Субдискретизация насыщенности : 4:2:0
Битовая глубина : 8 бит
Тип развёртки : Прогрессивная
Бит/(Пиксели*Кадры) : 0.301
Размер потока : 4,35 Гбайт (86%)
Библиотека кодирования : x264 core 146 r2538 121396c
Настройки программы : cabac=1 / ref=9 / deblock=1:-1:-1 / analyse=0x3:0x113 / me=umh / subme=10 / psy=1 / psy_rd=1.00:0.15 / mixed_ref=1 / me_range=32 / chroma_me=1 / trellis=2 / 8x8dct=1 / cqm=0 / deadzone=21,11 / fast_pskip=1 / chroma_qp_offset=-3 / threads=6 / lookahead_threads=1 / sliced_threads=0 / nr=0 / decimate=1 / interlaced=0 / bluray_compat=0 / constrained_intra=0 / bframes=10 / b_pyramid=2 / b_adapt=2 / b_bias=0 / direct=1 / weightb=1 / open_gop=0 / weightp=2 / keyint=230 / keyint_min=23 / scenecut=40 / intra_refresh=0 / rc_lookahead=40 / rc=crf / mbtree=0 / crf=18.7 / qcomp=0.60 / qpmin=0 / qpmax=69 / qpstep=4 / vbv_maxrate=40000 / vbv_bufsize=50000 / crf_max=0.0 / nal_hrd=none / filler=0 / ip_ratio=1.40 / pb_ratio=1.30 / aq=1:1.00
Язык : Spanish
Default : Да
Forced : Нет

Аудио #1
Идентификатор : 2
Формат : AC-3
Формат/Информация : Audio Coding 3
Расширение режима : CM (complete main)
Параметр Endianness формата : Big
Идентификатор кодека : A_AC3
Продолжительность : 2 ч. 3 м.
Вид битрейта : Постоянный
Битрейт : 384 Кбит/сек
Каналы : 6 каналов
Расположение каналов : Front: L C R, Side: L R, LFE
Частота : 48,0 КГц
Частота кадров : 31,250 кадров/сек (1536 spf)
Метод сжатия : С потерями
Размер потока : 339 Мбайт (7%)
Заголовок : любительский одноголосый, Serg Tex
Язык : Russian
Default : Да
Forced : Нет

Аудио #2
Идентификатор : 3
Формат : AC-3
Формат/Информация : Audio Coding 3
Расширение режима : CM (complete main)
Параметр Endianness формата : Big
Идентификатор кодека : A_AC3
Продолжительность : 2 ч. 3 м.
Вид битрейта : Постоянный
Битрейт : 448 Кбит/сек
Каналы : 6 каналов
Расположение каналов : Front: L C R, Side: L R, LFE
Частота : 48,0 КГц
Частота кадров : 31,250 кадров/сек (1536 spf)
Метод сжатия : С потерями
Размер потока : 395 Мбайт (8%)
Заголовок : original
Язык : Spanish
Default : Нет
Forced : Нет

Текст #1
Идентификатор : 4
Формат : UTF-8
Идентификатор кодека : S_TEXT/UTF8
Идентификатор кодека/Информация : UTF-8 Plain Text
Продолжительность : 1 ч. 58 м.
Битрейт : 98 бит/сек
Count of elements : 1738
Размер потока : 86,0 Кбайт (0%)
Заголовок : русские
Язык : Russian
Default : Нет
Forced : Нет

Текст #2
Идентификатор : 5
Формат : UTF-8
Идентификатор кодека : S_TEXT/UTF8
Идентификатор кодека/Информация : UTF-8 Plain Text
Продолжительность : 1 ч. 58 м.
Битрейт : 58 бит/сек
Count of elements : 1739
Размер потока : 50,9 Кбайт (0%)
Заголовок : английские
Язык : English
Default : Нет
Forced : Нет



Скачать Спящий голос через торрент http://s020.radikal.ru/i710/1609/9c/fa290439798f.jpg Скачать, смотреть онлайн Спящий голос бесплантно в хорошем качестве Описание: История двух сестёр в смутный период сразу же после завершения гражданской войны в Испании. Младшая из них Пепита, простоватая ... 10 10 2
Info! Золотая раздача, скачанное не засчитывается.
Торрент: Зарегистрирован [2016-09-11 11:47] · скачан: 22 раз
Статус: √ проверено
Размер: 5.07 GB
Как cкачать? Как скачать Спящий голос через торрент | UTorrent

% Раздел Тема Автор DL S | L
Фильмы [HD 720p, 1080p] (Звук Cam, VO, DVO) [ 14.87 GB ] Спящий голос / La voz dormida | | 1080p msltel Скачать
1 | 0

28-11-2019 20:33  


Отключить вcю реклaмy на сайте, в т.ч. и в плеере онлайн просмотра!

19-09-2016 05:19 Спящий голос Скачать торрент  

с таким переводом жаль)



    Дорогой пользователь! Огромная просьба, поблагодарите релизера, оцените раздачу и оставьте свои комментарий, если Вы скачали Спящий голос через торрент бесплатно!!
    Комментировать посты могут только пользователи прошедшие не сложную регистрацию
    Показать сообщения:    


    Спящий голос через торрент
    Скачать бесплатно Спящий голос
    Спящий голос скачать торрент
    Спящий голос смотреть онлайн
    Cкачать фильм Спящий голос бесплатно
    Спящий голос скачать торрент в хорошем качестве
    Спящий голос смотреть онлайн бесплатно в хорошем качестве
    Вы не можете начинать темы
    Вы не можете отвечать на сообщения
    Вы не можете редактировать свои сообщения
    Вы не можете удалять свои сообщения
    Вы не можете голосовать в опросах
    Вы не можете прикреплять файлы к сообщениям
    Вы можете скачивать файлы
    Спящий голос / La voz dormida [2011, драма, военный, BDRip 720p ] VO смотреть онлайн, скачать торрент picoco.icu