1 сезон

3 сезон

iTunes

1

iTunes

DUB Netflix

iTunes

13

1 сезон

RePack

30

Deluxe

pack

Легкие деньги

ВАЖНО

ИГРА 18+

pack

RePack

MK11

RePack

jed

RePack

fifa19

RePack

RDR2

RePack

NEED FOR SPEED™ PAYBACK

4 сезон

9 сезон

Бесстыжие 9 сезон

Все сериалы

все сериалы на PB.wtf

RePack

FAR CRY 5

Anonymous, доброй ночи, мы не успеваем до 1 числа собрать деньги на оплату серверов, помогите нам пожалуйста в это трудное время. В качестве благодарности мы отключим Вам всю рекламу на сайте (укажите свой ник в строку Ваше имя)!

×
  
Magnet ссылка

Несносные леди / Mother's Day (Гэрри Маршалл ) [2016, драма, комедия, BDRip-AVC, от potroks] Dub [iTunes] piratbit.org

Несносные леди через торрент piratbit.org

Размер: 2.91 GB | Добавлен: 4 года 9 мес. назад | Торрент скачан:452 раза
Скачать  

11-09-2016 13:52 Несносные леди Скачать торрент  

Несносные леди / Mother's Day

Год выпуска: 2016
Страна: США
Жанр: драма, комедия
Продолжительность: 01:58:50
Перевод: Дубляж [iTunes]
Навигация по главам: есть
Режиссер: Гэрри Маршалл
В ролях:

Дженнифер Энистон (Sandy), Джулия Робертс (Miranda), Кейт Хадсон (Jesse), Джейсон Судейкис (Bradley), Тимоти Олифант (Henry), Сара Чок (Gabi), Бритт Робертсон (Kristin), Джэк Уайтхолл (Zack), Марго Мартиндейл (Flo), Аасиф Мандви (Russell), Шэй Митчелл (Tina), Роберт Пайн (Earl)
Описание: Фитнес и шопинг, капризные предки и непослушные дети, завистливые подружки и надоевшие бывшие - милые составляющие настоящего женского счастья. А также мужского, если ты - отец-одиночка. И неважно, где и как сведет вас жизнь, если ты встретишь настоящую любовь. Главное - не сдаваться! Ведь судьба - это большой супермаркет, а не магазин на диване.

Качество: BDRip-AVC
Формат: MKV
Видео: AVC, 1024x554 (1.852), 2673 kbps, 23,976 fps, 0.197 bpp
Аудио#1: AC3 / 5.1 / 48 kHz / 384 kbps / 16 bit | RUS
Аудио#2: AC3 / 5.1 / 48 kHz / 448 kbps / 16 bit | ENG

Код:

Общее
Уникальный идентификатор : 234861958689842908974433843885318428999 (0xB0B0C495584423789FA8DD6D00595947)
Полное имя : Nesnosnyie.Ledi.2016.DUAL.BDRip.x264.-HELLYWOOD.mkv
Формат : Matroska
Версия формата : Version 4 / Version 2
Размер файла : 2,91 Гбайт
Продолжительность : 1 ч. 58 м.
Общий поток : 3507 Кбит/сек
Название фильма : Mother's Day (2016)
Дата кодирования : UTC 2016-07-26 06:18:40
Программа кодирования : mkvmerge v5.9.0 ('On The Loose') built on Dec 15 2012 16:39:58
Библиотека кодирования : libebml v1.3.0 + libmatroska v1.4.0

Видео
Идентификатор : 1
Формат : AVC
Формат/Информация : Advanced Video Codec
Профиль формата : High@L4.1
Параметр CABAC формата : Да
Параметр ReFrames формата : 12 кадров
Идентификатор кодека : V_MPEG4/ISO/AVC
Продолжительность : 1 ч. 58 м.
Битрейт : 2673 Кбит/сек
Ширина : 1024 пикселя
Высота : 554 пикселя
Соотношение сторон : 1,85:1
Режим частоты кадров : Постоянный
Частота кадров : 23,976 (24000/1001) кадра/сек
Цветовое пространство : YUV
Субдискретизация насыщенности : 4:2:0
Битовая глубина : 8 бит
Тип развёртки : Прогрессивная
Бит/(Пиксели*Кадры) : 0.197
Размер потока : 2,16 Гбайт (74%)
Заголовок : potroks
Библиотека кодирования : x264 core 148 r2705M 3f5ed56
Настройки программы : cabac=1 / ref=12 / deblock=1:-2:-2 / analyse=0x3:0x133 / me=umh / subme=11 / psy=1 / psy_rd=1.00:0.05 / mixed_ref=1 / me_range=48 / chroma_me=1 / trellis=2 / 8x8dct=1 / cqm=0 / deadzone=21,11 / fast_pskip=0 / chroma_qp_offset=-3 / threads=9 / lookahead_threads=2 / sliced_threads=0 / nr=0 / decimate=0 / interlaced=0 / bluray_compat=0 / constrained_intra=0 / bframes=13 / b_pyramid=2 / b_adapt=2 / b_bias=0 / direct=3 / weightb=1 / open_gop=0 / weightp=2 / keyint=240 / keyint_min=23 / scenecut=40 / intra_refresh=0 / rc_lookahead=100 / rc=2pass / mbtree=0 / bitrate=2673 / ratetol=1.0 / qcomp=0.70 / qpmin=1 / qpmax=69 / qpstep=4 / cplxblur=20.0 / qblur=0.5 / vbv_maxrate=50000 / vbv_bufsize=60000 / nal_hrd=none / filler=0 / ip_ratio=1.40 / pb_ratio=1.30 / aq=1:0.80
Язык : English
Default : Да
Forced : Нет

Аудио #1
Идентификатор : 2
Формат : AC-3
Формат/Информация : Audio Coding 3
Расширение режима : CM (complete main)
Параметр Endianness формата : Big
Идентификатор кодека : A_AC3
Продолжительность : 1 ч. 58 м.
Вид битрейта : Постоянный
Битрейт : 384 Кбит/сек
Каналы : 6 каналов
Расположение каналов : Front: L C R, Side: L R, LFE
Частота : 48,0 КГц
Частота кадров : 31,250 кадров/сек (1536 spf)
Метод сжатия : С потерями
Размер потока : 326 Мбайт (11%)
Заголовок : Dub | DD 5.1 @ 384 kbps - iTunes
Язык : Russian
Default : Да
Forced : Нет

Аудио #2
Идентификатор : 3
Формат : AC-3
Формат/Информация : Audio Coding 3
Расширение режима : CM (complete main)
Параметр Endianness формата : Big
Идентификатор кодека : A_AC3
Продолжительность : 1 ч. 58 м.
Вид битрейта : Постоянный
Битрейт : 448 Кбит/сек
Каналы : 6 каналов
Расположение каналов : Front: L C R, Side: L R, LFE
Частота : 48,0 КГц
Частота кадров : 31,250 кадров/сек (1536 spf)
Метод сжатия : С потерями
Размер потока : 381 Мбайт (13%)
Заголовок : Original | DD 5.1 @ 448 kbps
Язык : English
Default : Нет
Forced : Нет

Текст #1
Идентификатор : 4
Формат : UTF-8
Идентификатор кодека : S_TEXT/UTF8
Идентификатор кодека/Информация : UTF-8 Plain Text
Заголовок : Full
Язык : English
Default : Нет
Forced : Нет

Текст #2
Идентификатор : 5
Формат : UTF-8
Идентификатор кодека : S_TEXT/UTF8
Идентификатор кодека/Информация : UTF-8 Plain Text
Заголовок : SDH
Язык : English
Default : Нет
Forced : Нет

Меню
00:00:00.000 : en:(01)00:00:00:000
00:05:50.891 : en:(02)00:05:50:891
00:08:50.111 : en:(03)00:08:50:111
00:15:32.389 : en:(04)00:15:32:389
00:22:11.413 : en:(05)00:22:11:413
00:28:43.721 : en:(06)00:28:43:721
00:35:48.646 : en:(07)00:35:48:646
00:43:12.297 : en:(08)00:43:12:297
00:48:07.717 : en:(09)00:48:07:717
00:55:35.248 : en:(10)00:55:35:248
00:59:36.155 : en:(11)00:59:36:155
01:05:33.179 : en:(12)01:05:33:179
01:10:23.636 : en:(13)01:10:23:636
01:18:21.697 : en:(14)01:18:21:697
01:23:46.979 : en:(15)01:23:46:979
01:29:07.591 : en:(16)01:29:07:591
01:34:27.828 : en:(17)01:34:27:828
01:38:48.421 : en:(18)01:38:48:421
01:44:50.324 : en:(19)01:44:50:324
01:49:32.064 : en:(20)01:49:32:064
01:58:49.913 : en:(21)01:58:49:913

piratbit.org



Скачать Несносные леди через торрент http://i82.fastpic.ru/big/2016/0911/53/2bcd54281b2bd8716d72e14d7136f653.png Скачать фильм Несносные леди через торрент бесплантно в хорошем качестве Описание: Фитнес и шопинг, капризные предки и непослушные дети, завистливые подружки и надоевшие бывшие - милые составляющие настоящего ... 10 10 3
Info! Золотая раздача, скачанное не засчитывается.
Торрент: Зарегистрирован [2016-09-11 13:52] · скачан: 452 раз
Статус: √ проверено
Размер: 2.91 GB
Как cкачать? Как скачать Несносные леди через торрент | UTorrent

28-11-2019 20:33  

Отключить всю рекламу на сайте

    Дорогой пользователь! Огромная просьба, поблагодарите релизера, оцените раздачу и оставьте свои комментарий, если Вы скачали Несносные леди через торрент бесплатно! Внесите свою лепту в развитие PiratBit!
    Комментировать посты могут только пользователи прошедшие не сложную регистрацию
    Показать сообщения:    

    Несносные леди через торрент
    Скачать бесплатно Несносные леди
    Несносные леди скачать торрент
    Несносные леди смотреть онлайн
    Cкачать фильм Несносные леди бесплатно
    Несносные леди скачать торрент в хорошем качестве
    Несносные леди смотреть онлайн бесплатно в хорошем качестве


    Вы не можете начинать темы
    Вы не можете отвечать на сообщения
    Вы не можете редактировать свои сообщения
    Вы не можете удалять свои сообщения
    Вы не можете голосовать в опросах
    Вы не можете прикреплять файлы к сообщениям
    Вы можете скачивать файлы