1 сезон

3 сезон

iTunes

1

iTunes

DUB Netflix

iTunes

13

1 сезон

RePack

30

Deluxe

pack

Легкие деньги

ВАЖНО

ИГРА 18+

pack

RePack

MK11

RePack

jed

RePack

fifa19

RePack

RDR2

RePack

NEED FOR SPEED™ PAYBACK

4 сезон

9 сезон

Бесстыжие 9 сезон

Все сериалы

все сериалы на PB.wtf

RePack

FAR CRY 5

Anonymous, добрый день, мы не успеваем до 1 числа собрать деньги на оплату серверов, помогите нам пожалуйста в это трудное время. В качестве благодарности мы отключим Вам всю рекламу на сайте (укажите свой ник в строку Ваше имя)!

×
  
Magnet ссылка

Торо / Toro (Кике Маильо) [2016 г., триллер, драма, криминал, HDRip] Любительский (многоголосый) piratbit.org

Торо через торрент piratbit.org

Размер: 1.46 GB | Добавлен: 4 года 9 мес. назад | Торрент скачан:447 раз
Скачать  

12-09-2016 05:15 Торо Скачать торрент  

Торо / Toro
Год выпуска: 2016
Страна: Испания
Жанр: триллер, драма, криминал
Продолжительность: 01:46:24
Перевод: Любительский (многоголосый) [Синема-УС]
Субтитры: Отсутствуют

Режиссер: Кике Маильо
Продюссер: Белен Атьенса, Серхи Касамитхана, Мерседес Гамеро
Сценарий: Рафаэль Кобос, Фернандо Наварро

Бюджет: €4 000 000
Премьера в мире: 22 апреля 2016

лицам до 18 лет обязательно присутствие взрослого
http://www.imdb.com/title/tt4213806/



В ролях: Марио Касас, Луис Тосар, Хосе Сакристан, Хосе Мануэль Ривера, Ингрид Гарсия Йонсон, Луичи Масиас, Альберто Лопес, Ховик Кеучкерян

Описание: Бывший заключенный, его брат и племянница вынуждены податься в бега от мафии из-за долга в азартные игры, что приводит к дикому и жестокому преследованию, угрожающему их жизням.

Доп. информация: Имеется реклама от спонсора показа!

Качество: HDRip
Формат: AVI
Видео кодек: XviD
Аудио кодек: AC3
Видео:XviD, (2.35:1),720x304, 23.976 fps, 1567 Кбит/с
Аудио#1: 384 kb/s, 2 ch, 48.0 KHz
скриншот  скриншот  скриншот  

General
Complete name : D:\Toro.2016.P.HDRip.avi
Format : AVI
Format/Info : Audio Video Interleave
File size : 1.46 GiB
Duration : 1h 46mn
Overall bit rate : 1 960 Kbps
Writing application : VirtualDubMod 1.5.10.2 (build 2540/release)
Writing library : VirtualDubMod build 2540/release

Video
ID : 0
Format : MPEG-4 Visual
Format profile : Advanced Simple@L5
Format settings, BVOP : 2
Format settings, QPel : No
Format settings, GMC : No warppoints
Format settings, Matrix : Custom
Codec ID : XVID
Codec ID/Hint : XviD
Duration : 1h 46mn
Bit rate : 1 567 Kbps
Width : 720 pixels
Height : 304 pixels
Display aspect ratio : 2.35:1
Frame rate : 23.976 fps
Color space : YUV
Chroma subsampling : 4:2:0
Bit depth : 8 bits
Scan type : Progressive
Compression mode : Lossy
Bits/(Pixel*Frame) : 0.299
Stream size : 1.16 GiB (80%)
Writing library : XviD 1.2.1 (UTC 2008-12-04)

Audio
ID : 1
Format : AC-3
Format/Info : Audio Coding 3
Mode extension : CM (complete main)
Format settings, Endianness : Big
Codec ID : 2000
Duration : 1h 46mn
Bit rate mode : Constant
Bit rate : 384 Kbps
Channel count : 2 channels
Channel positions : Front: L R
Sampling rate : 48.0 KHz
Bit depth : 16 bits
Compression mode : Lossy
Stream size : 292 MiB (20%)
Alignment : Split accross interleaves
Interleave, duration : 42 ms (1.00 video frame)
Interleave, preload duration : 500 ms

piratbit.org



Скачать Торо через торрент http://i85.fastpic.ru/big/2016/0912/ad/32ed402a9d90ff61ade7b008e358a6ad.png Скачать фильм Торо через торрент бесплантно в хорошем качестве Описание: Бывший заключенный, его брат и племянница вынуждены податься в бега от мафии из-за долга в азартные игры, что приводит к дикому и ... 9.4 10 18
Торрент: Зарегистрирован [2016-09-12 05:15] · скачан: 447 раз
Статус: T временная
Размер: 1.46 GB
Как cкачать? Как скачать Торо через торрент | UTorrent

% Раздел Тема Автор DL S | L
Фильмы без перевода [ 29.88 GB ] Тор 3: Рагнарёк / Thor: Ragnarok [2017 BluRay REMUX 1080p] [Eng] killermax2013 Скачать
1 | 0
Фильмы [HD 720p, 1080p] (Хороший звук DUB, MVO) [ 10.24 GB ] Тор 2: Царство тьмы / Thor: The Dark World [2013 BDRip 1080p] Messa-fan Скачать
1 | 0
3D Фильмы [ 11.38 GB ] Тихоокеанский рубеж 3D / Pacific Rim 3D [ 2013 BDRip ] Half OverUnder GEKADOL Скачать
1 | 0
Фильмы 2011 [ 2.82 GB ] Тор / Thor [2011 HDRip-AVC] DUB 2xAVO Eng Sub serg7628 Скачать
1 | 0
Фильмы [HD 720p, 1080p] (Хороший звук DUB, MVO) [ 4.56 GB ] Тор 2: Царство тьмы / Thor: The Dark World [2013 BDRip 720p] DUB AVO VO potroks Скачать
1 | 0
Фильмы [HD 720p, 1080p] (Хороший звук DUB, MVO) [ 9.98 GB ] Человек которого не было / The Man Who Wasn't There [2001 BDRip 1080p от _denis_100 / NNNB] DVO + 2xAVO + Original + Sub _denis_100 Скачать
1 | 0
Фильмы [HD 720p, 1080p] (Хороший звук DUB, MVO) [ 5.76 GB ] Человек которого не было / The Man Who Wasn't There [2001 BDRip 720p от _denis_100 / NNNB] MVO + 2xAVO + Original + Sub _denis_100 Скачать
1 | 0

28-11-2019 20:33  

Отключить всю рекламу на сайте

12-09-2016 07:45 Торо Скачать торрент  

У Касаса чего-то рожа помятая такая,уже не торт!Прошла его доля славыpiratbit.org



12-09-2016 18:32 Торо Скачать торрент  

Неплохой фильм,посмотреть можно.piratbit.org



13-09-2016 05:56 Торо Скачать торрент  

RomanovStyle писал(а):

У Касаса чего-то рожа помятая такая,уже не торт!Прошла его доля славы

Сам ты помятый. Баки модные у него!piratbit.org



13-09-2016 16:26 Торо Скачать торрент  

RomanovStyle писал(а):

У Касаса чего-то рожа помятая такая,уже не торт!Прошла его доля славы

согласен был да сплыл парень)piratbit.org



29-09-2016 15:33 Торо Скачать торрент  

У Касаса чего-то рожа помятая такая,уже не торт!Прошла его доля славы
----------------------------
Фильм смотреть надо,а не картинки разглядывать.
Молодцы испанцы,отличный фильм сняли.piratbit.org



    Дорогой пользователь! Огромная просьба, поблагодарите релизера, оцените раздачу и оставьте свои комментарий, если Вы скачали Торо через торрент бесплатно! Внесите свою лепту в развитие PiratBit!
    Комментировать посты могут только пользователи прошедшие не сложную регистрацию
    Показать сообщения:    

    Торо через торрент
    Скачать бесплатно Торо
    Торо скачать торрент
    Торо смотреть онлайн
    Cкачать фильм Торо бесплатно
    Торо скачать торрент в хорошем качестве
    Торо смотреть онлайн бесплатно в хорошем качестве


    Вы не можете начинать темы
    Вы не можете отвечать на сообщения
    Вы не можете редактировать свои сообщения
    Вы не можете удалять свои сообщения
    Вы не можете голосовать в опросах
    Вы не можете прикреплять файлы к сообщениям
    Вы можете скачивать файлы