1 сезон

3 сезон

iTunes

1

iTunes

DUB Netflix

iTunes

13

1 сезон

RePack

30

Deluxe

pack

Легкие деньги

ВАЖНО

ИГРА 18+

pack

RePack

MK11

RePack

jed

RePack

fifa19

RePack

RDR2

RePack

NEED FOR SPEED™ PAYBACK

4 сезон

9 сезон

Бесстыжие 9 сезон

Все сериалы

все сериалы на PB.wtf

RePack

FAR CRY 5

Anonymous, добрый вечер, мы не успеваем до 1 числа собрать деньги на оплату серверов, помогите нам пожалуйста в это трудное время. В качестве благодарности мы отключим Вам всю рекламу на сайте (укажите свой ник в строку Ваше имя)!

×
  
Magnet ссылка

С днём рождения / Happy Birthday (Кейси Тебо ) [2016, ужасы, триллер, WEB-DLRip] MVO piratbit.org

С днём рождения через торрент piratbit.org

Размер: 1.37 GB | Добавлен: 4 года 9 мес. назад | Торрент скачан:295 раз
Скачать  

13-09-2016 20:56 С днём рождения Скачать торрент  

С днём рождения / Happy Birthday

Год выпуска: 2016
Страна: США
Жанр: ужасы, триллер
Продолжительность: 01:29:29
Перевод: Многоголосый закадровый, любительский (СПД)
Режиссер: Кейси Тебо
В ролях: Мэтт Буш (Brady), Райли Литман (Tommy), Ванесса Ленгиз (Katie Elizondo), Бритни Олдфорд (Lucia), Тристин Мейс (Janie), Эрик Палладино (Texican), Мэттью Уиллиг (El Caballo), Джеффри Дэниэл Филлипс (Frank Zappa), Стивен Тайлер (Kasape Suka), Inanna Sarkis (Kasape Suka's Girlfriend), Хуан Хосе Дубон (Eldest brother), Майкл Энтони Перес (Cock Fight Gambler)
Описание:
Прямо накануне своего дня рождения Брэди узнаёт, что его девушка ему изменила. Лучший друг Томми уговаривает парня поехать на пару дней в Мексику развеяться и почувствовать себя другим человеком. Сначала у всё идёт довольно неплохо - алкоголь, наркотики, друзья знакомятся с двумя красивыми девушками, но дальнейшего развития событий никто не ожидал. Бреди запомнит этот день рождения на всю жизнь.
Рейтинг:

MPAA: R - Лицам до 17 лет обязательно присутствие взрослого
Качество: WEB-DLRip
Формат: AVI
Видео: XviD, 720x288 (2.500), 1793 kbps, 23,976 fps, 0,361 bpp
Аудио: AC3 / 2.0 / 48 kHz / 384 kbps /

General
Complete name \Happy.Birthday.2016.P.WEB-DLRip.14OOMB.avi
Format : AVI
Format/Info : Audio Video Interleave
File size : 1.37 GiB
Duration : 1 h 29 min
Overall bit rate : 2 187 kb/s
Writing application : VirtualDubMod 1.5.10.2 (build 2540/release)
Writing library : VirtualDubMod build 2540/release

Video
ID : 0
Format : MPEG-4 Visual
Format profile : Advanced Simple@L5
Format settings, BVOP : 2
Format settings, QPel : No
Format settings, GMC : No warppoints
Format settings, Matrix : Custom
Codec ID : XVID
Codec ID/Hint : XviD
Duration : 1 h 29 min
Bit rate : 1 794 kb/s
Width : 720 pixels
Height : 288 pixels
Display aspect ratio : 2.500
Frame rate : 23.976 (24000/1001) FPS
Color space : YUV
Chroma subsampling : 4:2:0
Bit depth : 8 bits
Scan type : Progressive
Compression mode : Lossy
Bits/(Pixel*Frame) : 0.361
Stream size : 1.12 GiB (82%)
Writing library : XviD 1.2.1 (UTC 2008-12-04)

Audio
ID : 1
Format : AC-3
Format/Info : Audio Coding 3
Mode extension : CM (complete main)
Format settings, Endianness : Big
Codec ID : 2000
Duration : 1 h 29 min
Bit rate mode : Constant
Bit rate : 384 kb/s
Channel(s) : 2 channels
Channel positions : Front: L R
Sampling rate : 48.0 kHz
Frame rate : 31.250 FPS (1536 spf)
Compression mode : Lossy
Stream size : 246 MiB (18%)
Alignment : Split accross interleaves
Interleave, duration : 42 ms (1.00 video frame)
Interleave, preload duration : 500 ms
Скриншоты:
piratbit.org



Скачать С днём рождения через торрент http://i5.imageban.ru/out/2016/09/13/805d039545777b403f39307460302e8c.jpg Скачать фильм С днём рождения через торрент бесплантно в хорошем качестве Описание: Прямо накануне своего дня рождения Брэди узнаёт, что его девушка ему изменила. Лучший друг Томми уговаривает парня поехать на ... 8.1 10 8
Торрент: Зарегистрирован [2016-09-13 20:56] · скачан: 295 раз
Статус: T временная
Размер: 1.37 GB
Как cкачать? Как скачать С днём рождения через торрент | UTorrent

% Раздел Тема Автор DL S | L
T Фильмы (мультфильмы) cо спонсором показа (Новинки AVI/MKV) [ 3.09 GB ] С Днем Рождения Ханна / Happy Birthday Hannah [2018 WEB-DL 720p] MVO ["Синема УС"] bober100 Скачать
1 | 0
T Фильмы (мультфильмы) cо спонсором показа (Новинки AVI/MKV) [ 1.37 GB ] С Днем Рождения Ханна / Happy Birthday Hannah [2018 WEB-DLRip] MVO ["Синема УС"] bober100 Скачать
1 | 0
T Релизы по Парсеру [Игры, Сериалы и Фильмы и другое...] [ 744 MB ] С днём рождения / Happy Birthday WEB-DLRip / MVO Sherif Скачать
1 | 0

28-11-2019 20:33  

Отключить всю рекламу на сайте

14-09-2016 03:42 С днём рождения Скачать торрент  

как ужастик?piratbit.org



14-09-2016 19:36 С днём рождения Скачать торрент  

bober100 писал(а):

как ужастик?

Нормальный.Был в своё время такого же плана фильм,не буду говорить какой.Тот был покруче,но и этот вполне.
Только вот с жанром ужасы переборщили.piratbit.org



14-09-2016 20:05 С днём рождения Скачать торрент  

это не относиться к ужасам не как.дешовое гомноpiratbit.org



    Дорогой пользователь! Огромная просьба, поблагодарите релизера, оцените раздачу и оставьте свои комментарий, если Вы скачали С днём рождения через торрент бесплатно! Внесите свою лепту в развитие PiratBit!
    Комментировать посты могут только пользователи прошедшие не сложную регистрацию
    Показать сообщения:    

    С днём рождения через торрент
    Скачать бесплатно С днём рождения
    С днём рождения скачать торрент
    С днём рождения смотреть онлайн
    Cкачать фильм С днём рождения бесплатно
    С днём рождения скачать торрент в хорошем качестве
    С днём рождения смотреть онлайн бесплатно в хорошем качестве


    Вы не можете начинать темы
    Вы не можете отвечать на сообщения
    Вы не можете редактировать свои сообщения
    Вы не можете удалять свои сообщения
    Вы не можете голосовать в опросах
    Вы не можете прикреплять файлы к сообщениям
    Вы можете скачивать файлы