1 сезон

3 сезон

iTunes

1

iTunes

DUB Netflix

iTunes

13

1 сезон

RePack

30

Deluxe

pack

Легкие деньги

ВАЖНО

ИГРА 18+

pack

RePack

MK11

RePack

jed

RePack

fifa19

RePack

RDR2

RePack

NEED FOR SPEED™ PAYBACK

4 сезон

9 сезон

Бесстыжие 9 сезон

Все сериалы

все сериалы на PB.wtf

RePack

FAR CRY 5

Anonymous, доброй ночи, мы не успеваем до 1 числа собрать деньги на оплату серверов, помогите нам пожалуйста в это трудное время. В качестве благодарности мы отключим Вам всю рекламу на сайте (укажите свой ник в строку Ваше имя)!

×
  
Magnet ссылка

Брат-Природа / Brother Nature (Османи Родригез, Мэтт Виллинз) [2016 г., Комедия, WEB-DLRip, Любительский (многоголосый)] piratbit.org

Брат-Природа через торрент piratbit.org

Размер: 1.37 GB | Добавлен: 4 года 9 мес. назад | Торрент скачан:258 раз
Скачать  

14-09-2016 12:22 Брат-Природа Скачать торрент  

Брат-Природа / Brother Nature
Год выпуска: 2016
Страна: США
Жанр: Комедия
Продолжительность: 01:37:41
Перевод: Любительский (многоголосый)
Субтитры: Отсутствуют

Режиссер: Османи Родригез, Мэтт Виллинз
Продюссер: Лорн Майклз, Дженни Хинки, Мишель Стокуэлл
Сценарий: Мики Дэй, Камерон Фэй, Таран Киллэм

Премьера в мире: 9 сентября 2016

IMDB Рейтинг: 4,5/10 (173 голоса)

В ролях: Гиллиан Джейкобс, Билл Пуллман, Рэйчел Харрис, Рита Уилсон, Таран Киллэм, Кумэйл Нанджиани, Бобби Мойнахан, Кенан Томпсон, Сара Бёрнс, Дэвид Уэйн

Описание: Будущий конгрессмен Роджер собирается сделать предложение девушке своей мечты в ее родительском доме на озере. Но все идет наперекосяк, когда он встречает своего будущего шурина Тодда, вожатого на полной ставке с большим сердцем и диким чувством юмора. В отчаянной попытке стать лучшим другом Роджера Тодд навлекает на него кучу неприятностей. И теперь Роджеру кажется, что стать частью новой семьи не такая уж и простая затея.

Доп. информация: Присутствует реклама от спонсора.

Качество: WEB-DLRip
Формат: AVI
Видео кодек: XviD
Аудио кодек: AC3
Видео: 720x304 (2,35:1), 24.000 fps, ~1610 Kbps, 0.306 bit/pixel
Аудио: 48 kHz, AC-3, 2 ch, ~384 kbps | Любительский (многоголосый) | скриншот  
Релиз от: KOSHARA
скриншот   скриншот   скриншот   скриншот  

Общее
Полное имя: Brother.Nature.2016.P.WEB-DLRip.14OOMB_KOSHARA.avi
Формат : AVI
Формат/Информация: Audio Video Interleave
Размер файла: 1,37 Гбайт
Продолжительность: 1 ч. 37 м.
Общий поток: 2003 Кбит/сек
Программа кодирования: VirtualDubMod 1.5.10.2 (build 2540/release)
Библиотека кодирования: VirtualDubMod build 2540/release

Видео
Идентификатор: 0
Формат: MPEG-4 Visual
Профиль формата: Advanced Simple@L5
Параметр BVOP формата: 2
Параметр QPel формата: Нет
Параметр GMC формата: Без точки перехода
Параметр матрицы формата: Выборочная
Идентификатор кодека: XVID
Идентификатор кодека/Подсказка: XviD
Продолжительность: 1 ч. 37 м.
Битрейт: 1610 Кбит/сек
Ширина: 720 пикселей
Высота: 304 пикселя
Соотношение сторон: 2,35:1
Частота кадров: 24,000 кадра/сек
Цветовое пространство: YUV
Субдискретизация насыщенности: 4:2:0
Битовая глубина: 8 бит
Тип развёртки: Прогрессивная
Метод сжатия: С потерями
Бит/(Пиксели*Кадры): 0.306
Размер потока: 1,10 Гбайт (80%)
Библиотека кодирования: XviD 1.2.1 (UTC 2008-12-04)

Аудио
Идентификатор: 1
Формат: AC-3
Формат/Информация: Audio Coding 3
Расширение режима: CM (complete main)
Параметр Endianness формата: Big
Идентификатор кодека: 2000
Продолжительность: 1 ч. 37 м.
Вид битрейта: Постоянный
Битрейт: 384 Кбит/сек
Каналы: 2 канала
Расположение каналов: Front: L R
Частота: 48,0 КГц
Частота кадров: 31,250 кадров/сек (1536 spf)
Метод сжатия: С потерями
Размер потока: 268 Мбайт (19%)
Выравнивание: Разделение по промежуткам
Продолжительность промежутка: 42 мс. (1,00 видеокадр)
Время предзагрузки промежутка: 500 мс.

piratbit.org



Скачать Брат-Природа через торрент http://i85.fastpic.ru/big/2016/0914/30/feac166422aaeb5e08a46f9c23cd2230.jpg Скачать фильм Брат-Природа через торрент бесплантно в хорошем качестве Описание: Будущий конгрессмен Роджер собирается сделать предложение девушке своей мечты в ее родительском доме на озере. Но все идет ... 9.3 10 3
Торрент: Зарегистрирован [2016-09-14 12:22] · скачан: 258 раз
Статус: T временная
Размер: 1.37 GB
Как cкачать? Как скачать Брат-Природа через торрент | UTorrent



Последний раз редактировалось: Cruzer (2016-09-15 01:25), всего редактировалось 2 раз(а)

28-11-2019 20:33  

Отключить всю рекламу на сайте

14-09-2016 16:18 Брат-Природа Скачать торрент  

Брат Пит-Лорда?piratbit.org



    Дорогой пользователь! Огромная просьба, поблагодарите релизера, оцените раздачу и оставьте свои комментарий, если Вы скачали Брат-Природа через торрент бесплатно! Внесите свою лепту в развитие PiratBit!
    Комментировать посты могут только пользователи прошедшие не сложную регистрацию
    Показать сообщения:    

    Брат-Природа через торрент
    Скачать бесплатно Брат-Природа
    Брат-Природа скачать торрент
    Брат-Природа смотреть онлайн
    Cкачать фильм Брат-Природа бесплатно
    Брат-Природа скачать торрент в хорошем качестве
    Брат-Природа смотреть онлайн бесплатно в хорошем качестве


    Вы не можете начинать темы
    Вы не можете отвечать на сообщения
    Вы не можете редактировать свои сообщения
    Вы не можете удалять свои сообщения
    Вы не можете голосовать в опросах
    Вы не можете прикреплять файлы к сообщениям
    Вы можете скачивать файлы