1 сезон

3 сезон

iTunes

1

iTunes

DUB Netflix

iTunes

13

1 сезон

RePack

30

Deluxe

pack

Легкие деньги

ВАЖНО

ИГРА 18+

pack

RePack

MK11

RePack

jed

RePack

fifa19

RePack

RDR2

RePack

NEED FOR SPEED™ PAYBACK

4 сезон

9 сезон

Бесстыжие 9 сезон

Все сериалы

все сериалы на PB.wtf

RePack

FAR CRY 5

Anonymous, добрый день, мы не успеваем до 1 числа собрать деньги на оплату серверов, помогите нам пожалуйста в это трудное время. В качестве благодарности мы отключим Вам всю рекламу на сайте (укажите свой ник в строку Ваше имя)!

×
  
Magnet ссылка

Пришельцы 3: Взятие Бастилии / Les Visiteurs: La Révolution (Жан-Мари Пуаре ) [2016, комедия, фантастика, HDRip, Дублированный iTunes] piratbit.org

Пришельцы 3: Взятие Бастилии через торрент piratbit.org

Размер: 1.41 GB | Добавлен: 4 года 9 мес. назад | Торрент скачан:828 раз
Скачать  

14-09-2016 21:52 Пришельцы 3: Взятие Бастилии Скачать торрент  

Пришельцы 3: Взятие Бастилии / Les Visiteurs: La Révolution

Год выпуска: 2016
Страна: Франция
Жанр: комедия, фантастика
Продолжительность: 01:49:29
Перевод: Дублированный (iTunes)
Режиссер: Жан-Мари Пуаре
В ролях: Кристиан Клавье (Jacquouille / Jacquouillet / Edmond Jacquart), Жан Рено (Godefroy le Hardi), Франк Дюбоск (Gonzague de Montmirail), Карин Вьяр (Adélaïde de Montmirail), Сильви Тестю (Charlotte Robespierre / Geneviève Carraud Robespierre), Мари-Анн Шазель (Prune), Эри Абиттан (Le marquis de Portofino), Алекс Лутс (Robert de Montmirail), Стефани де Крэенкур (Victoire-Églantine de Montmirail), Вероника Буланжер (Élise), Анни Грегорио (Honorine), Паскаль Н’Зонзи (Philibert)
Описание: В третьей части граф с оруженосцем отправляются в самое сложное для Франции время - период Французской революции.
Рейтинг:

Качество: HDRip
Формат: AVI
Видео: XviD, 720x304 (2.35:1), 1456 kbps, 24 fps, 0,277 bpp
Аудио: AC3 / 5.1 / 48 kHz / 384 kbps /

Код:

General
Complete name                            : D:\торренты\Les.Visiteurs.La.Revolution.HDRip.1.41Gb.avi
Format                                   : AVI
Format/Info                              : Audio Video Interleave
File size                                : 1.41 GiB
Duration                                 : 1 h 49 min
Overall bit rate                         : 1 848 kb/s

Video
ID                                       : 0
Format                                   : MPEG-4 Visual
Format profile                           : Advanced Simple@L5
Format settings, BVOP                    : 1
Format settings, QPel                    : No
Format settings, GMC                     : No warppoints
Format settings, Matrix                  : Custom
Codec ID                                 : XVID
Codec ID/Hint                            : XviD
Duration                                 : 1 h 49 min
Bit rate                                 : 1 456 kb/s
Width                                    : 720 pixels
Height                                   : 304 pixels
Display aspect ratio                     : 2.35:1
Frame rate                               : 24.000 FPS
Color space                              : YUV
Chroma subsampling                       : 4:2:0
Bit depth                                : 8 bits
Scan type                                : Progressive
Compression mode                         : Lossy
Bits/(Pixel*Frame)                       : 0.277
Stream size                              : 1.11 GiB (79%)
Writing library                          : XviD 73

Audio
ID                                       : 1
Format                                   : AC-3
Format/Info                              : Audio Coding 3
Mode extension                           : CM (complete main)
Format settings, Endianness              : Big
Codec ID                                 : 2000
Duration                                 : 1 h 49 min
Bit rate mode                            : Constant
Bit rate                                 : 384 kb/s
Channel(s)                               : 6 channels
Channel positions                        : Front: L C R, Side: L R, LFE
Sampling rate                            : 48.0 kHz
Frame rate                               : 31.250 FPS (1536 spf)
Compression mode                         : Lossy
Stream size                              : 301 MiB (21%)
Alignment                                : Aligned on interleaves
Interleave, duration                     : 64  ms (1.54 video frames)
Interleave, preload duration             : 192  ms
Title                                    : iTunes

piratbit.org



Скачать Пришельцы 3: Взятие Бастилии через торрент http://i83.fastpic.ru/big/2016/0915/84/e75fd43939155162d14334bec3fca184.png Скачать фильм Пришельцы 3: Взятие Бастилии через торрент бесплантно в хорошем качестве Описание: В третьей части граф с оруженосцем отправляются в самое сложное для Франции время - период Французской ... 10 10 28
Info! Золотая раздача, скачанное не засчитывается.
Торрент: Зарегистрирован [2016-09-14 21:52] · скачан: 828 раз
Статус: √ проверено
Размер: 1.41 GB
Как cкачать? Как скачать Пришельцы 3: Взятие Бастилии через торрент | UTorrent

% Раздел Тема Автор DL S | L
Фильмы 2016 [DVDrip, WEB-DLRip, HDrip] (DUB, MVO) [ 1.55 GB ] Пришельцы 3: Взятие Бастилии / Les Visiteurs: La Révolution [2016 HDRip "BD RUS"] coc900 Скачать
1 | 0

28-11-2019 20:33  

Отключить всю рекламу на сайте

15-09-2016 03:51 Пришельцы 3: Взятие Бастилии Скачать торрент  

прикольный фильм)piratbit.org



15-09-2016 15:42 Пришельцы 3: Взятие Бастилии Скачать торрент  

Интересный но много исторической лабуды 1 и 2 часть были лучшеpiratbit.org



16-09-2016 06:18 Пришельцы 3: Взятие Бастилии Скачать торрент  

MaxBenzin писал(а):

Интересный но много исторической лабуды ..

Согласен, но это комедия. И она не претендует на высокую историческую достоверность. Хотя первые части мне больше нравились, но может быть это всего из-за того, что тогда трава была зеленее... piratbit.org



    Дорогой пользователь! Огромная просьба, поблагодарите релизера, оцените раздачу и оставьте свои комментарий, если Вы скачали Пришельцы 3: Взятие Бастилии через торрент бесплатно! Внесите свою лепту в развитие PiratBit!
    Комментировать посты могут только пользователи прошедшие не сложную регистрацию
    Показать сообщения:    

    Пришельцы 3: Взятие Бастилии через торрент
    Скачать бесплатно Пришельцы 3: Взятие Бастилии
    Пришельцы 3: Взятие Бастилии скачать торрент
    Пришельцы 3: Взятие Бастилии смотреть онлайн
    Cкачать фильм Пришельцы 3: Взятие Бастилии бесплатно
    Пришельцы 3: Взятие Бастилии скачать торрент в хорошем качестве
    Пришельцы 3: Взятие Бастилии смотреть онлайн бесплатно в хорошем качестве


    Вы не можете начинать темы
    Вы не можете отвечать на сообщения
    Вы не можете редактировать свои сообщения
    Вы не можете удалять свои сообщения
    Вы не можете голосовать в опросах
    Вы не можете прикреплять файлы к сообщениям
    Вы можете скачивать файлы