1 сезон

3 сезон

iTunes

1

iTunes

DUB Netflix

iTunes

13

1 сезон

RePack

30

Deluxe

pack

Легкие деньги

ВАЖНО

ИГРА 18+

pack

RePack

MK11

RePack

jed

RePack

fifa19

RePack

RDR2

RePack

NEED FOR SPEED™ PAYBACK

4 сезон

9 сезон

Бесстыжие 9 сезон

Все сериалы

все сериалы на PB.wtf

RePack

FAR CRY 5

Anonymous, добрый день, мы не успеваем до 1 числа собрать деньги на оплату серверов, помогите нам пожалуйста в это трудное время. В качестве благодарности мы отключим Вам всю рекламу на сайте (укажите свой ник в строку Ваше имя)!

×
  
Magnet ссылка

Алиса в Зазеркалье / Alice Through the Looking Glass (Джеймс Бобин ) [2016, фэнтези, приключения, семейный, WEB-DLRip] DUB [iTunes] piratbit.org

Алиса в Зазеркалье через торрент piratbit.org

Размер: 2.05 GB | Добавлен: 4 года 9 мес. назад | Торрент скачан:287 раз
Скачать  

20-09-2016 05:41 Алиса в Зазеркалье Скачать торрент  

Алиса в Зазеркалье / Alice Through the Looking Glass

Год выпуска: 2016
Страна: США, Великобритания
Жанр: фэнтези, приключения, семейный

Продолжительность: 01:53:19
Перевод: Дубляж [iTunes]
Режиссер: Джеймс Бобин
В ролях: Миа Васиковска (Alice Kingsleigh), Джонни Депп (Hatter Tarrant Hightopp), Хелена Бонем Картер (Iracebeth), Энн Хэтэуэй (Mirana), Саша Барон Коэн (Time), Рис Иванс (Zanik Hightopp), Мэтт Лукас (Tweedledee / Tweedledum), Линдси Дункан (Helen Kingsleigh), Лео Билл (Hamish), Джеральдин Джеймс (Lady Ascot), Эндрю Скотт (Dr. Addison Bennett), Ричард Армитедж (King Oleron)
Описание:
На этот раз главной героине предстоит отправиться в путешествие во времени, полное неожиданностей и ярких открытий, чтобы спасти своего друга, Безумного Шляпника.

MPAA: PG - Рекомендуется присутствие родителей
Качество: WEB-DLRip
Формат: AVI
Видео: XviD, 720x384 (1.85:1), 1810 kbps, 23,976 fps, 0,273 bpp
Аудио №1: AC3 / 5.1 / 48 kHz / 384 kbps / Русский
Аудио №2: AC3 / 5.1 / 48 kHz / 384 kbps / Английский

General
Complete name Alice.2O16.D.WEB-DLRip.avi
Format : AVI
Format/Info : Audio Video Interleave
Format profile : OpenDML
File size : 2.05 GiB
Duration : 1 h 53 min
Overall bit rate : 2 595 kb/s
Writing application : VirtualDubMod 1.5.10.2 (build 2540/release)
Writing library : VirtualDubMod build 2540/release

Video
ID : 0
Format : MPEG-4 Visual
Format profile : Advanced Simple@L5
Format settings, BVOP : 2
Format settings, QPel : No
Format settings, GMC : No warppoints
Format settings, Matrix : Custom
Codec ID : XVID
Codec ID/Hint : XviD
Duration : 1 h 53 min
Bit rate : 1 811 kb/s
Width : 720 pixels
Height : 384 pixels
Display aspect ratio : 1.85:1
Frame rate : 23.976 (24000/1001) FPS
Color space : YUV
Chroma subsampling : 4:2:0
Bit depth : 8 bits
Scan type : Progressive
Compression mode : Lossy
Bits/(Pixel*Frame) : 0.273
Stream size : 1.43 GiB (70%)
Writing library : XviD 1.2.1 (UTC 2008-12-04)

Audio #1
ID : 1
Format : AC-3
Format/Info : Audio Coding 3
Mode extension : CM (complete main)
Format settings, Endianness : Big
Codec ID : 2000
Duration : 1 h 53 min
Bit rate mode : Constant
Bit rate : 384 kb/s
Channel(s) : 6 channels
Channel positions : Front: L C R, Side: L R, LFE
Sampling rate : 48.0 kHz
Frame rate : 31.250 FPS (1536 spf)
Compression mode : Lossy
Stream size : 311 MiB (15%)
Alignment : Split accross interleaves
Interleave, duration : 42 ms (1.00 video frame)
Interleave, preload duration : 500 ms

Audio #2
ID : 2
Format : AC-3
Format/Info : Audio Coding 3
Mode extension : CM (complete main)
Format settings, Endianness : Big
Codec ID : 2000
Duration : 1 h 52 min
Bit rate mode : Constant
Bit rate : 384 kb/s
Channel(s) : 6 channels
Channel positions : Front: L C R, Side: L R, LFE
Sampling rate : 48.0 kHz
Frame rate : 31.250 FPS (1536 spf)
Compression mode : Lossy
Stream size : 310 MiB (15%)
Alignment : Split accross interleaves
Interleave, duration : 42 ms (1.00 video frame)
Interleave, preload duration : 500 ms
Скриншоты:
piratbit.org



Скачать Алиса в Зазеркалье через торрент http://i5.imageban.ru/out/2016/09/20/fd19e9eba1b434a43498a9394f227f55.jpg Скачать фильм Алиса в Зазеркалье через торрент бесплантно в хорошем качестве Описание: На этот раз главной героине предстоит отправиться в путешествие во времени, полное неожиданностей и ярких открытий, чтобы спасти ... 10 10 8
Торрент: Зарегистрирован [2016-09-20 05:41] · скачан: 287 раз
Статус: √ проверено
Размер: 2.05 GB
Как cкачать? Как скачать Алиса в Зазеркалье через торрент | UTorrent

% Раздел Тема Автор DL S | L
Фильмы 2016 [DVDrip, WEB-DLRip, HDrip] (DUB, MVO) [ 1.97 GB ] Алиса в Зазеркалье / Alice Through the Looking Glass [2016 WEB-DLRip-AVC] Dub $-DRON-$ Скачать
1 | 0
Фильмы 2016 [DVDrip, WEB-DLRip, HDrip] (DUB, MVO) [ 2.18 GB ] Алиса в Зазеркалье / Alice Through the Looking Glass [2016 BDRip] - [] Twi7ter Скачать
1 | 0
Фильмы (Blu-ray, BD-Remux, HDDVD) [ 27.86 GB ] Алиса в Зазеркалье / Alice Through the Looking Glass [2016 эранизация BDRemux 1080p] от ExKinoRay / Russian Mafia Скачать
1 | 0
R.G. Resident & PiratVoice - Фильмы, Видео [ 8.67 GB ] Алиса в Зазеркалье / Alice Through the Looking Glass [2016 BDRip 720p - ] R.G.Resident schultz Скачать
1 | 0
Фильмы (HD 720p, 1080p) (48-60 fps) [ 6.66 GB ] Алиса в Зазеркалье / Alice Through the Looking Glass [2016 BDRip 720p 60 fps от еnvy / NNNB] DUB / еnvy Скачать
2 | 0
3D Фильмы [ 16.26 GB ] Алиса в Зазеркалье в 3D / Alice Through the Looking Glass 3D [2016 3D BDRip 1080p] / Half OverUnder sheker187 Скачать
1 | 0
3D Фильмы [ 20.2 GB ] Алиса в Зазеркалье в 3Д / Alice Through the Looking Glass 3D [2016 BDrip 1080p] DUB / OverUnder / Вертикальная стереопара serega768 Скачать
1 | 0

28-11-2019 20:33  

Отключить всю рекламу на сайте

21-09-2016 06:09 Алиса в Зазеркалье Скачать торрент  

смотреть можно!piratbit.org



    Дорогой пользователь! Огромная просьба, поблагодарите релизера, оцените раздачу и оставьте свои комментарий, если Вы скачали Алиса в Зазеркалье через торрент бесплатно! Внесите свою лепту в развитие PiratBit!
    Комментировать посты могут только пользователи прошедшие не сложную регистрацию
    Показать сообщения:    

    Алиса в Зазеркалье через торрент
    Скачать бесплатно Алиса в Зазеркалье
    Алиса в Зазеркалье скачать торрент
    Алиса в Зазеркалье смотреть онлайн
    Cкачать фильм Алиса в Зазеркалье бесплатно
    Алиса в Зазеркалье скачать торрент в хорошем качестве
    Алиса в Зазеркалье смотреть онлайн бесплатно в хорошем качестве


    Вы не можете начинать темы
    Вы не можете отвечать на сообщения
    Вы не можете редактировать свои сообщения
    Вы не можете удалять свои сообщения
    Вы не можете голосовать в опросах
    Вы не можете прикреплять файлы к сообщениям
    Вы можете скачивать файлы