1 сезон

3 сезон

iTunes

1

iTunes

DUB Netflix

iTunes

13

1 сезон

RePack

30

Deluxe

pack

Легкие деньги

ВАЖНО

ИГРА 18+

pack

RePack

MK11

RePack

jed

RePack

fifa19

RePack

RDR2

RePack

NEED FOR SPEED™ PAYBACK

4 сезон

9 сезон

Бесстыжие 9 сезон

Все сериалы

все сериалы на PB.wtf

RePack

FAR CRY 5

Anonymous, добрый вечер, мы не успеваем до 1 числа собрать деньги на оплату серверов, помогите нам пожалуйста в это трудное время. В качестве благодарности мы отключим Вам всю рекламу на сайте (укажите свой ник в строку Ваше имя)!

×
  
Magnet ссылка

Алиса в Зазеркалье / Alice Through the Looking Glass (Джеймс Бобин) [2016 г., фэнтези, приключения, семейный, WEB-DLRip, Дубляж "iTunes"] piratbit.org

Алиса в Зазеркалье через торрент piratbit.org

Размер: 2.17 GB | Добавлен: 4 года 9 мес. назад | Торрент скачан:167 раз
Скачать  

20-09-2016 18:10 Алиса в Зазеркалье Скачать торрент  

Алиса в Зазеркалье / Alice Through the Looking Glass
Год выпуска: 2016
Страна: США, Великобритания / Walt Disney Pictures, Roth Films, Team Todd
Жанр: фэнтези, приключения, семейный
Продолжительность: 01:53:19
Перевод: Дубляж (iTunes)

Режиссер: Джеймс Бобин



В ролях: Миа Васиковска, Джонни Депп, Хелена Бонем Картер, Энн Хэтэуэй, Саша Барон Коэн, Рис Иванс, Мэтт Лукас, Линдси Дункан, Лео Билл, Джеральдин Джеймс

Описание: Следуйте за Алисой в магическое Зазеркалье, навстречу новым невероятным приключениям! Здесь миром правит фантазия. Здесь нет никаких границ. Здесь возможно абсолютно все. Безумный Шляпник, Белая и Красная Королевы, Голубая Гусеница и, конечно, Улыбка Без Кота – все они ждут вас в причудливом мире, созданном великим кинорассказчиком Тимом Бертоном по мотивам книг Льюиса Кэррола. Алисе предстоит совершить полное неожиданностей путешествие, спасти своего друга Шляпника и даже сойтись в схватке с самим беспощадным Временем.

Качество: WEB-DLRip
Формат: AVI
Видео кодек: XviD
Аудио кодек: AC3
Видео: 720x384 (1.88:1), 23.976 fps, XviD build 50 ~2354 kbps avg, 0.35 bit/pixel
Аудио: 48 kHz, AC3 Dolby Digital, 3/2 (L,C,R,l,r) + LFE ch, ~384 kbps

Общее
Полное имя : F:\кино\Алиса в Зазеркалье.2016.D.WEB-DLRip.avi
Формат : AVI
Формат/Информация : Audio Video Interleave
Профиль формата : OpenDML
Размер файла : 2,17 Гбайт
Продолжительность : 1 ч. 53 м.
Общий поток : 2744 Кбит/сек
Программа кодирования : VirtualDubMod 1.5.10.3 | www.virtualdub-fr.org || (build 2550/release)
Библиотека кодирования : VirtualDubMod build 2550/release

Видео
Идентификатор : 0
Формат : MPEG-4 Visual
Профиль формата : Advanced Simple@L5
Параметр BVOP формата : 1
Параметр QPel формата : Нет
Параметр GMC формата : Без точки перехода
Параметр матрицы формата : Default (MPEG)
Идентификатор кодека : XVID
Идентификатор кодека/Подсказка : XviD
Продолжительность : 1 ч. 53 м.
Битрейт : 2349 Кбит/сек
Ширина : 720 пикселей
Высота : 384 пикселя
Соотношение сторон : 1,85:1
Частота кадров : 23,976 (23976/1000) кадра/сек
Цветовое пространство : YUV
Субдискретизация насыщенности : 4:2:0
Битовая глубина : 8 бит
Тип развёртки : Прогрессивная
Метод сжатия : С потерями
Бит/(Пиксели*Кадры) : 0.354
Размер потока : 1,86 Гбайт (86%)
Библиотека кодирования : XviD 1.2.1 (UTC 2008-12-04)

Аудио
Идентификатор : 1
Формат : AC-3
Формат/Информация : Audio Coding 3
Расширение режима : CM (complete main)
Параметр Endianness формата : Big
Идентификатор кодека : 2000
Продолжительность : 1 ч. 53 м.
Вид битрейта : Постоянный
Битрейт : 384 Кбит/сек
Каналы : 6 каналов
Расположение каналов : Front: L C R, Side: L R, LFE
Частота : 48,0 КГц
Частота кадров : 31,250 кадров/сек (1536 spf)
Метод сжатия : С потерями
Размер потока : 311 Мбайт (14%)
Выравнивание : Разделение по промежуткам
Продолжительность промежутка : 42 мс. (1,00 видеокадр)
Время предзагрузки промежутка : 500 мс.

piratbit.org



Скачать Алиса в Зазеркалье через торрент https://pic.kartinco.top/images/11/m8b3o.jpg Скачать фильм Алиса в Зазеркалье через торрент бесплантно в хорошем качестве Описание: Следуйте за Алисой в магическое Зазеркалье, навстречу новым невероятным приключениям! Здесь миром правит фантазия. Здесь нет ... 10 10 3
Торрент: Зарегистрирован [2016-09-20 18:10] · скачан: 167 раз
Статус: √ проверено
Размер: 2.17 GB
Как cкачать? Как скачать Алиса в Зазеркалье через торрент | UTorrent

% Раздел Тема Автор DL S | L
Фильмы 2016 [DVDrip, WEB-DLRip, HDrip] (DUB, MVO) [ 1.97 GB ] Алиса в Зазеркалье / Alice Through the Looking Glass [2016 WEB-DLRip-AVC] Dub $-DRON-$ Скачать
1 | 0
Фильмы 2016 [DVDrip, WEB-DLRip, HDrip] (DUB, MVO) [ 2.18 GB ] Алиса в Зазеркалье / Alice Through the Looking Glass [2016 BDRip] - [] Twi7ter Скачать
2 | 0
Фильмы (Blu-ray, BD-Remux, HDDVD) [ 27.86 GB ] Алиса в Зазеркалье / Alice Through the Looking Glass [2016 эранизация BDRemux 1080p] от ExKinoRay / Russian Mafia Скачать
1 | 0
R.G. Resident & PiratVoice - Фильмы, Видео [ 8.67 GB ] Алиса в Зазеркалье / Alice Through the Looking Glass [2016 BDRip 720p - ] R.G.Resident schultz Скачать
1 | 0
Фильмы (HD 720p, 1080p) (48-60 fps) [ 6.66 GB ] Алиса в Зазеркалье / Alice Through the Looking Glass [2016 BDRip 720p 60 fps от еnvy / NNNB] DUB / еnvy Скачать
6 | 0
3D Фильмы [ 16.26 GB ] Алиса в Зазеркалье в 3D / Alice Through the Looking Glass 3D [2016 3D BDRip 1080p] / Half OverUnder sheker187 Скачать
1 | 0
3D Фильмы [ 20.2 GB ] Алиса в Зазеркалье в 3Д / Alice Through the Looking Glass 3D [2016 BDrip 1080p] DUB / OverUnder / Вертикальная стереопара serega768 Скачать
1 | 0

28-11-2019 20:33  

Отключить всю рекламу на сайте

20-09-2016 20:37 Алиса в Зазеркалье Скачать торрент  

норм фильм)piratbit.org



05-10-2016 08:53 Алиса в Зазеркалье Скачать торрент  

Шикарная сказочка получилась) Отлично зашла, все советую к просмотру!!!piratbit.org



    Дорогой пользователь! Огромная просьба, поблагодарите релизера, оцените раздачу и оставьте свои комментарий, если Вы скачали Алиса в Зазеркалье через торрент бесплатно! Внесите свою лепту в развитие PiratBit!
    Комментировать посты могут только пользователи прошедшие не сложную регистрацию
    Показать сообщения:    

    Алиса в Зазеркалье через торрент
    Скачать бесплатно Алиса в Зазеркалье
    Алиса в Зазеркалье скачать торрент
    Алиса в Зазеркалье смотреть онлайн
    Cкачать фильм Алиса в Зазеркалье бесплатно
    Алиса в Зазеркалье скачать торрент в хорошем качестве
    Алиса в Зазеркалье смотреть онлайн бесплатно в хорошем качестве


    Вы не можете начинать темы
    Вы не можете отвечать на сообщения
    Вы не можете редактировать свои сообщения
    Вы не можете удалять свои сообщения
    Вы не можете голосовать в опросах
    Вы не можете прикреплять файлы к сообщениям
    Вы можете скачивать файлы