1 сезон

3 сезон

iTunes

1

iTunes

DUB Netflix

iTunes

13

1 сезон

RePack

30

Deluxe

pack

Легкие деньги

ВАЖНО

ИГРА 18+

pack

RePack

MK11

RePack

jed

RePack

fifa19

RePack

RDR2

RePack

NEED FOR SPEED™ PAYBACK

4 сезон

9 сезон

Бесстыжие 9 сезон

Все сериалы

все сериалы на PB.wtf

RePack

FAR CRY 5

Anonymous, добрый день, мы не успеваем до 1 числа собрать деньги на оплату серверов, помогите нам пожалуйста в это трудное время. В качестве благодарности мы отключим Вам всю рекламу на сайте (укажите свой ник в строку Ваше имя)!

×
  
Magnet ссылка

Тарзан. Легенда / The Legend of Tarzan (Дэвид Йэтс) [2016 г., боевик, драма, мелодрама, приключения, WEB DLRip-AVC] DUB / iTunes piratbit.org

Тарзан. Легенда через торрент piratbit.org

Размер: 2.05 GB | Добавлен: 4 года 9 мес. назад | Торрент скачан:309 раз
Скачать  

21-09-2016 19:27 Тарзан. Легенда Скачать торрент  

Тарзан. Легенда / The Legend of Tarzan«Human. Nature»

Год выпуска » 2016
Страна » США, Великобритания, Канада
Жанр » боевик, драма, мелодрама, приключения
Продолжительность » 01:49:56
Перевод » Профессиональный (полное дублирование) [iTunes]
Субтитры » Russian (Forced, iTunes), Russian (iTunes), English (SDH)
В ролях
» Александр Скарсгард, Марго Робби, Сэмюэл Л. Джексон, Кристоф Вальц, Элла Пернелл, Джимон Хонсу, Джим Бродбент, Каспер Крамп, Алисия Вудхаус, Саймон Расселл Бил

Режиссёр
» Дэвид Йэтс

» Приспособившийся к жизни в Лондоне Тарзан возвращается в свой бывший дом, в джунгли, чтобы разобраться в том, что происходит в лагере горнодобывающей компании.

• Качество » WEB DLRip-AVC
• Формат » MKV
• Видео кодек » AVC
• Аудио кодек » AC3
• Видео »MPEG-4 AVC, 1024x424, 23.976 fps, 1899 Кбит/с
• Аудио » Русский (AC-3 / 6 ch / 384 kbps / 48,0 КГц / 16 bit )
• Аудио » Английский (AC-3 / 6 ch / 384 kbps / 48,0 КГц / 16 bit)



Бюджет: $180 000 000
Сборы в США: $126 643 061
Сборы в мире: + $229 300 000 = $355 943 061
Сборы в России: $8 485 513
Дата мировой премьеры: 27 июня 2016
Дата российской премьеры: 30 июня 2016, «Каро-Премьер»

Код:

General
Unique ID                   : 233140885856303523933559479018430161885 (0xAF654D242B8CA7AE9580EDF3682463DD)
Complete name               : E:\The.Legend.of.Tarzan.2016.D.WEB-DLRip.AVC.ExKinoRay.mkv
Format                      : Matroska
Format version              : Version 2
File size                   : 2.05 GiB
Duration                    : 1 h 49 min
Overall bit rate            : 2 667 kb/s
Movie name                  : The Legend of Tarzan (2016) from ExKinoRay
Encoded date                : UTC 2016-09-21 02:09:53
Writing application         : mkvmerge v7.6.0 ('Garden of Dreams') 32bit built on Feb 11 2015 00:18:47
Writing library             : libebml v1.3.1 + libmatroska v1.4.2

Video
ID                          : 1
Format                      : AVC
Format/Info                 : Advanced Video Codec
Format profile              : High@L4.1
Format settings, CABAC      : Yes
Format settings, ReFrames   : 14 frames
Codec ID                    : V_MPEG4/ISO/AVC
Duration                    : 1 h 49 min
Bit rate                    : 1 899 kb/s
Width                       : 1 024 pixels
Height                      : 424 pixels
Display aspect ratio        : 2.40:1
Frame rate mode             : Constant
Frame rate                  : 23.976 (23976/1000) FPS
Color space                 : YUV
Chroma subsampling          : 4:2:0
Bit depth                   : 8 bits
Scan type                   : Progressive
Bits/(Pixel*Frame)          : 0.182
Stream size                 : 1.42 GiB (69%)
Title                       : Enigma
Writing library             : x264 core 144 r2525 40bb568
Encoding settings           : cabac=1 / ref=14 / deblock=1:-2:-2 / analyse=0x3:0x113 / me=umh / subme=10 / psy=1 / psy_rd=1.05:0.15 / mixed_ref=1 / me_range=32 / chroma_me=1 / trellis=2 / 8x8dct=1 / cqm=0 / deadzone=21,11 / fast_pskip=0 / chroma_qp_offset=-3 / threads=12 / lookahead_threads=2 / sliced_threads=0 / nr=0 / decimate=0 / interlaced=0 / bluray_compat=0 / constrained_intra=0 / bframes=9 / b_pyramid=2 / b_adapt=2 / b_bias=0 / direct=3 / weightb=1 / open_gop=0 / weightp=2 / keyint=240 / keyint_min=23 / scenecut=40 / intra_refresh=0 / rc_lookahead=40 / rc=2pass / mbtree=0 / bitrate=1899 / ratetol=1.0 / qcomp=0.60 / qpmin=0 / qpmax=51 / qpstep=4 / cplxblur=20.0 / qblur=0.5 / vbv_maxrate=50000 / vbv_bufsize=62500 / nal_hrd=none / filler=0 / ip_ratio=1.40 / pb_ratio=1.30 / aq=1:1.00
Language                    : English
Default                     : Yes
Forced                      : No
Color range                 : Limited
Color primaries             : BT.709
Transfer characteristics    : BT.709
Matrix coefficients         : BT.709

Audio #1
ID                          : 2
Format                      : AC-3
Format/Info                 : Audio Coding 3
Mode extension              : CM (complete main)
Format settings, Endianness : Big
Codec ID                    : A_AC3
Duration                    : 1 h 49 min
Bit rate mode               : Constant
Bit rate                    : 384 kb/s
Channel(s)                  : 6 channels
Channel positions           : Front: L C R, Side: L R, LFE
Sampling rate               : 48.0 kHz
Frame rate                  : 31.250 FPS (1536 spf)
Compression mode            : Lossy
Stream size                 : 302 MiB (14%)
Title                       : DUB, iTunes
Language                    : Russian
Default                     : Yes
Forced                      : No

Audio #2
ID                          : 3
Format                      : AC-3
Format/Info                 : Audio Coding 3
Mode extension              : CM (complete main)
Format settings, Endianness : Big
Codec ID                    : A_AC3
Duration                    : 1 h 49 min
Bit rate mode               : Constant
Bit rate                    : 384 kb/s
Channel(s)                  : 6 channels
Channel positions           : Front: L C R, Side: L R, LFE
Sampling rate               : 48.0 kHz
Frame rate                  : 31.250 FPS (1536 spf)
Compression mode            : Lossy
Stream size                 : 302 MiB (14%)
Language                    : English
Default                     : No
Forced                      : No

Text #1
ID                          : 4
Format                      : UTF-8
Codec ID                    : S_TEXT/UTF8
Codec ID/Info               : UTF-8 Plain Text
Title                       : Forced, iTunes
Language                    : Russian
Default                     : Yes
Forced                      : No

Text #2
ID                          : 5
Format                      : UTF-8
Codec ID                    : S_TEXT/UTF8
Codec ID/Info               : UTF-8 Plain Text
Title                       : iTunes
Language                    : Russian
Default                     : No
Forced                      : No

Text #3
ID                          : 6
Format                      : UTF-8
Codec ID                    : S_TEXT/UTF8
Codec ID/Info               : UTF-8 Plain Text
Title                       : SDH
Language                    : English
Default                     : No
Forced                      : No

Menu
00:00:00.000                : en:1
00:10:56.000                : en:2
00:20:47.000                : en:3
00:28:26.000                : en:4
00:40:49.000                : en:5
00:51:03.000                : en:6
01:01:15.000                : en:7
01:10:22.000                : en:8
01:20:58.000                : en:9
01:29:09.000                : en:10
01:42:05.000                : en:11

скриншот  скриншот  скриншот  скриншот  
piratbit.org



Скачать Тарзан. Легенда через торрент http://i74.fastpic.ru/big/2015/1218/b5/c39d072d168dbcde95d1a17f670689b5.gif Скачать фильм Тарзан. Легенда через торрент бесплантно в хорошем качестве В ролях » Александр Скарсгард, Марго Робби, Сэмюэл Л. Джексон, Кристоф Вальц, Элла Пернелл, Джимон Хонсу, Джим Бродбент, Каспер Крамп, ... 10 10 4
Торрент: Зарегистрирован [2016-09-21 19:27] · скачан: 309 раз
Статус: √ проверено
Размер: 2.05 GB
Как cкачать? Как скачать Тарзан. Легенда через торрент | UTorrent

% Раздел Тема Автор DL S | L
Фильмы (Blu-ray, BD-Remux, HDDVD) [ 25.74 GB ] Тарзан. Легенда / The Legend of Tarzan [2016 Blu-Ray Remux 1080p] killermax2013 Скачать
1 | 0
Фильмы 2016 [DVDrip, WEB-DLRip, HDrip] (DUB, MVO) [ 1.53 GB ] Тарзан. Легенда / The Legend of Tarzan [2016 HDRip-AVC] killermax2013 Скачать
1 | 0
Фильмы (WEB-DL 720p, 1080p) [ 3.59 GB ] Тарзан. Легенда / The Legend of Tarzan [2016 WEB-DL 720p] DUB / $-DRON-$ Скачать
1 | 0

28-11-2019 20:33  

Отключить всю рекламу на сайте

23-09-2016 04:35 Тарзан. Легенда Скачать торрент  

смотреть можно!piratbit.org



    Дорогой пользователь! Огромная просьба, поблагодарите релизера, оцените раздачу и оставьте свои комментарий, если Вы скачали Тарзан. Легенда через торрент бесплатно! Внесите свою лепту в развитие PiratBit!
    Комментировать посты могут только пользователи прошедшие не сложную регистрацию
    Показать сообщения:    

    Тарзан. Легенда через торрент
    Скачать бесплатно Тарзан. Легенда
    Тарзан. Легенда скачать торрент
    Тарзан. Легенда смотреть онлайн
    Cкачать фильм Тарзан. Легенда бесплатно
    Тарзан. Легенда скачать торрент в хорошем качестве
    Тарзан. Легенда смотреть онлайн бесплатно в хорошем качестве


    Вы не можете начинать темы
    Вы не можете отвечать на сообщения
    Вы не можете редактировать свои сообщения
    Вы не можете удалять свои сообщения
    Вы не можете голосовать в опросах
    Вы не можете прикреплять файлы к сообщениям
    Вы можете скачивать файлы