1 сезон

3 сезон

iTunes

1

iTunes

DUB Netflix

iTunes

13

1 сезон

RePack

30

Deluxe

pack

Легкие деньги

ВАЖНО

ИГРА 18+

pack

RePack

MK11

RePack

jed

RePack

fifa19

RePack

RDR2

RePack

NEED FOR SPEED™ PAYBACK

4 сезон

9 сезон

Бесстыжие 9 сезон

Все сериалы

все сериалы на PB.wtf

RePack

FAR CRY 5

Anonymous, добрый день, мы не успеваем до 1 числа собрать деньги на оплату серверов, помогите нам пожалуйста в это трудное время. В качестве благодарности мы отключим Вам всю рекламу на сайте (укажите свой ник в строку Ваше имя)!

×
  
Magnet ссылка

Любой ценой / Hell or High Water (Дэвид Маккензи) [2016, драма, криминал, WEB-DLRip] Дубляж - [Лицензия / iTunes] piratbit.org

Любой ценой через торрент piratbit.org

Размер: 1.37 GB | Добавлен: 4 года 8 мес. назад | Торрент скачан:780 раз
Скачать  

21-09-2016 22:28 Любой ценой Скачать торрент  


Любой ценой / Hell or High Water
««Справедливость - это не преступление»»

ИНФОРМАЦИЯ:
Год выпуска:2016
Страна: США
Жанр: драма, криминал
Продолжительность: 01:37:43
Перевод: Дубляж - [Лицензия / iTunes]
Режиссер: Дэвид Маккензи

В Ролях:


Джефф Бриджес (Marcus Hamilton), Крис Пайн (Toby Howard), Бен Фостер (Tanner Howard), Джил Бирмингем (Alberto Parker), Дейл Дикки (Elsie), Уильям Стерчи (Mr. Clauson), Бак Тейлор (Old Man), Кристин Берг (Olney Teller), Кит Мэривезер (Rancher), Жакмо Буззел (Archer City Deputy), Кэти Миксон (Jenny Ann), Эмбер Мидфандер (Vernon Teller)

ОПИСАНИЕ:
Два брата-лузера решают наведаться в хранилища пары-тройки банков, которые много лет безбожно обкрадывают своих должников. Расследование дерзких ограблений с грубым почерком увенчает карьеру шерифа Маркуса. Но куда выведет это нехитрое дело?

  • Мировая премьера:16 мая 2016

    ТЕХ.ДАННЫЕ:
    Качество: WEB-DLRip
    Формат: AVI
    Видео: XviD, 720x304 (2.35:1), 1608 kbps, 25 fps, 0,294 bpp
    Аудио: AC3 / 5.1 / 48 kHz / 384 kbps /


    General
    Complete name : G:\Торенты\Раздачи\Игры\LuBoy.CenoY.2O16.D.WEB-DLRip.14OOMB.avi
    Format : AVI
    Format/Info : Audio Video Interleave
    File size : 1.37 GiB
    Duration : 1 h 37 min
    Overall bit rate : 2 002 kb/s
    Writing application : VirtualDubMod 1.5.10.2 (build 2540/release)
    Writing library : VirtualDubMod build 2540/release

    Video
    ID : 0
    Format : MPEG-4 Visual
    Format profile : Advanced Simple@L5
    Format settings, BVOP : 2
    Format settings, QPel : No
    Format settings, GMC : No warppoints
    Format settings, Matrix : Custom
    Codec ID : XVID
    Codec ID/Hint : XviD
    Duration : 1 h 37 min
    Bit rate : 1 609 kb/s
    Width : 720 pixels
    Height : 304 pixels
    Display aspect ratio : 2.35:1
    Frame rate : 25.000 FPS
    Color space : YUV
    Chroma subsampling : 4:2:0
    Bit depth : 8 bits
    Scan type : Progressive
    Compression mode : Lossy
    Bits/(Pixel*Frame) : 0.294
    Stream size : 1.10 GiB (80%)
    Writing library : XviD 1.2.1 (UTC 2008-12-04)

    Audio
    ID : 1
    Format : AC-3
    Format/Info : Audio Coding 3
    Mode extension : CM (complete main)
    Format settings, Endianness : Big
    Codec ID : 2000
    Duration : 1 h 37 min
    Bit rate mode : Constant
    Bit rate : 384 kb/s
    Channel(s) : 6 channels
    Channel positions : Front: L C R, Side: L R, LFE
    Sampling rate : 48.0 kHz
    Frame rate : 31.250 FPS (1536 spf)
    Compression mode : Lossy
    Stream size : 268 MiB (19%)
    Alignment : Split accross interleaves
    Interleave, duration : 40 ms (1.00 video frame)
    Interleave, preload duration : 500 ms
    Скриншоты:

    © Оформление by .::Ворон::.
    piratbit.org



  • Скачать Любой ценой через торрент https://pic1.kartinco.top/images/61/ordi9.jpg Скачать фильм Любой ценой через торрент бесплантно в хорошем качестве Е:Два брата-лузера решают наведаться в хранилища пары-тройки банков, которые много лет безбожно обкрадывают своих должников. Расследование ... 9.7 10 22
    Info! Золотая раздача, скачанное не засчитывается.
    Торрент: Зарегистрирован [2016-09-21 22:28] · скачан: 780 раз
    Статус: √ проверено
    Размер: 1.37 GB
    Как cкачать? Как скачать Любой ценой через торрент | UTorrent

    % Раздел Тема Автор DL S | L
    Фильмы с авторской озвучкой [ 1.46 GB ] Любой ценой / Hell or High Water [2016 BDRip] AVO [Д.Пучков aka Goblin] Twi7ter Скачать
    1 | 0
    Фильмы с авторской озвучкой [ 1.46 GB ] Любой ценой / Hell or High Water [2016 BDRip] [AVO] killermax2013 Скачать
    1 | 0
    Ultra HD (UHD: 2K, 4K, 8K) — видео сверхвысокой чёткости [ 64.61 GB ] Любой ценой / Hell or High Water [2016 UHD BDRemux 2160p] 3xAVO+DUB [] bober100 Скачать
    1 | 0
    Фильмы [HD 720p, 1080p] (Хороший звук DUB, MVO) [ 7.09 GB ] Любой ценой / Hell or High Water [2016 BDRip 720p от _denis_100 | NNNB] DUB + 3xAVO + Original + Sub _denis_100 Скачать
    1 | 0
    Фильмы (Blu-ray, BD-Remux, HDDVD) [ 29.24 GB ] Любой ценой / Hell or High Water [2016 BD Remux 1080p] [] DUB+AVO bober100 Скачать
    1 | 0
    Фильмы [HD 720p, 1080p] (Хороший звук DUB, MVO) [ 5.76 GB ] Любой ценой / Hell or High Water [2016 BDRip 720p] DUB AVO potroks Скачать
    1 | 0
    Фильмы 2016 [DVDrip, WEB-DLRip, HDrip] (DUB, MVO) [ 1.46 GB ] Любой ценой / Hell or High Water [2016 BDRip] - [] Twi7ter Скачать
    1 | 0

    28-11-2019 20:33  

    Отключить всю рекламу на сайте

      Дорогой пользователь! Огромная просьба, поблагодарите релизера, оцените раздачу и оставьте свои комментарий, если Вы скачали Любой ценой через торрент бесплатно! Внесите свою лепту в развитие PiratBit!
      Комментировать посты могут только пользователи прошедшие не сложную регистрацию
      Показать сообщения:    

      Любой ценой через торрент
      Скачать бесплатно Любой ценой
      Любой ценой скачать торрент
      Любой ценой смотреть онлайн
      Cкачать фильм Любой ценой бесплатно
      Любой ценой скачать торрент в хорошем качестве
      Любой ценой смотреть онлайн бесплатно в хорошем качестве


      Вы не можете начинать темы
      Вы не можете отвечать на сообщения
      Вы не можете редактировать свои сообщения
      Вы не можете удалять свои сообщения
      Вы не можете голосовать в опросах
      Вы не можете прикреплять файлы к сообщениям
      Вы можете скачивать файлы