1 сезон

3 сезон

iTunes

1

iTunes

DUB Netflix

iTunes

13

1 сезон

RePack

30

Deluxe

pack

Легкие деньги

ВАЖНО

ИГРА 18+

pack

RePack

MK11

RePack

jed

RePack

fifa19

RePack

RDR2

RePack

NEED FOR SPEED™ PAYBACK

4 сезон

9 сезон

Бесстыжие 9 сезон

Все сериалы

все сериалы на PB.wtf

RePack

FAR CRY 5

Anonymous, добрый вечер, мы не успеваем до 1 числа собрать деньги на оплату серверов, помогите нам пожалуйста в это трудное время. В качестве благодарности мы отключим Вам всю рекламу на сайте (укажите свой ник в строку Ваше имя)!

×
  
Magnet ссылка

Судная ночь 3 / The Purge: Election Year (Джеймс ДеМонако) [2016 г., ужасы, фантастика, боевик, триллер, WEB-DLRip, Дубляж "iTunes"] piratbit.org

Судная ночь 3 через торрент piratbit.org

Размер: 2.16 GB | Добавлен: 4 года 9 мес. назад | Торрент скачан:278 раз
Скачать  

22-09-2016 17:54 Судная ночь 3 Скачать торрент  

Судная ночь 3 / The Purge: Election Year
Год выпуска: 2016
Страна: США, Франция / Blumhouse Productions, Platinum Dunes, Universal Pictures
Жанр: ужасы, фантастика, боевик, триллер
Продолжительность: 01:48:47
Перевод: Дубляж (iTunes)

Режиссер: Джеймс ДеМонако



В ролях: Фрэнк Грилло, Элизабет Митчелл, Майкелти Уильямсон, Джозеф Джулиан Сория, Бетти Гэбриел, Терри Серпико, Эдвин Ходж, Кайл Сикор, Бэрри Нолан, Лиза Колон-Зайас

Описание: Добро пожаловать в идеальное будущее, в котором Судная ночь превратилась в международный тренд. Туристы со всего мира прибывают в аэропорты Америки: ведь всего лишь раз в году здесь позволено все, главное — дожить до рассвета.

Качество: WEB-DLRip
Формат: AVI
Видео кодек: XviD
Аудио кодек: AC3
Видео: 720x304 (2.37:1), 23.976 fps, XviD build 50 ~2447 kbps avg, 0.47 bit/pixel
Аудио: 48 kHz, AC3 Dolby Digital, 3/2 (L,C,R,l,r) + LFE ch, ~384 kbps

Общее
Полное имя : F:\кино\Судная ночь 3.2016.D.WEB-DLRip.avi
Формат : AVI
Формат/Информация : Audio Video Interleave
Профиль формата : OpenDML
Размер файла : 2,16 Гбайт
Продолжительность : 1 ч. 48 м.
Общий поток : 2838 Кбит/сек
Программа кодирования : VirtualDubMod 1.5.10.3 | www.virtualdub-fr.org || (build 2550/release)
Библиотека кодирования : VirtualDubMod build 2550/release

Видео
Идентификатор : 0
Формат : MPEG-4 Visual
Профиль формата : Advanced Simple@L5
Параметр BVOP формата : 1
Параметр QPel формата : Нет
Параметр GMC формата : Без точки перехода
Параметр матрицы формата : Default (MPEG)
Идентификатор кодека : XVID
Идентификатор кодека/Подсказка : XviD
Продолжительность : 1 ч. 48 м.
Битрейт : 2442 Кбит/сек
Ширина : 720 пикселей
Высота : 304 пикселя
Соотношение сторон : 2,35:1
Частота кадров : 23,976 (23976/1000) кадра/сек
Цветовое пространство : YUV
Субдискретизация насыщенности : 4:2:0
Битовая глубина : 8 бит
Тип развёртки : Прогрессивная
Метод сжатия : С потерями
Бит/(Пиксели*Кадры) : 0.465
Размер потока : 1,86 Гбайт (86%)
Библиотека кодирования : XviD 1.2.1 (UTC 2008-12-04)

Аудио
Идентификатор : 1
Формат : AC-3
Формат/Информация : Audio Coding 3
Расширение режима : CM (complete main)
Параметр Endianness формата : Big
Идентификатор кодека : 2000
Продолжительность : 1 ч. 48 м.
Вид битрейта : Постоянный
Битрейт : 384 Кбит/сек
Каналы : 6 каналов
Расположение каналов : Front: L C R, Side: L R, LFE
Частота : 48,0 КГц
Частота кадров : 31,250 кадров/сек (1536 spf)
Метод сжатия : С потерями
Размер потока : 299 Мбайт (14%)
Выравнивание : Разделение по промежуткам
Продолжительность промежутка : 42 мс. (1,00 видеокадр)
Время предзагрузки промежутка : 500 мс.

piratbit.org



Скачать Судная ночь 3 через торрент https://pic.kartinco.top/images/11/zmhqh.jpg Скачать фильм Судная ночь 3 через торрент бесплантно в хорошем качестве Описание: Добро пожаловать в идеальное будущее, в котором Судная ночь превратилась в международный тренд. Туристы со всего мира прибывают в ... 8.1 10 12
Торрент: Зарегистрирован [2016-09-22 17:54] · скачан: 278 раз
Статус: √ проверено
Размер: 2.16 GB
Как cкачать? Как скачать Судная ночь 3 через торрент | UTorrent

% Раздел Тема Автор DL S | L
Ultra HD (UHD: 2K, 4K, 8K) — видео сверхвысокой чёткости [ 52.75 GB ] Судная ночь 3 / The Purge: Election Year [2016 UHD BDRemux 2160p] [] + AVO [М. Яроцкий] sheker187 Скачать
1 | 0
Фильмы 2016 [DVDrip, WEB-DLRip, HDrip] (DUB, MVO) [ 1.46 GB ] Судная ночь 3 / The Purge: Election Year [2016 BDRip] - [] Twi7ter Скачать
1 | 0
Фильмы (Blu-ray, BD-Remux, HDDVD) [ 35 GB ] Судная ночь 3 / The Purge: Election Year [2016 Blu-ray CEE 1080p] Russian Mafia Скачать
1 | 0
Фильмы 2016 [DVDrip, WEB-DLRip, HDrip] (DUB, MVO) [ 1.46 GB ] Судная ночь 3 / The Purge: Election Year [2016 BDRip] DUB [ BD CEE] bober100 Скачать
1 | 0
Фильмы 2016 [DVDrip, WEB-DLRip, HDrip] (DUB, MVO) [ 748 MB ] Судная ночь 3 / The Purge: Election Year [2016 HDRip] DUB [ BD CEE] bober100 Скачать
1 | 0
Фильмы [HD 720p, 1080p] (Хороший звук DUB, MVO) [ 6.93 GB ] Судная ночь 3 / The Purge: Election Year [2016 BDRip 720p] Dub potroks Скачать
1 | 0
Фильмы без перевода [ 26.82 GB ] Судная ночь 3 / The Purge: Election Year [2016 BD Remux] [Оригинал] smaster Скачать
1 | 0

28-11-2019 20:33  

Отключить всю рекламу на сайте

23-09-2016 04:01 Судная ночь 3 Скачать торрент  

Фильм шляпаpiratbit.org



23-09-2016 09:38 Судная ночь 3 Скачать торрент  

bober100 писал(а):

Фильм шляпа

Да ну?!piratbit.org



23-09-2016 14:26 Судная ночь 3 Скачать торрент  

zra писал(а):

bober100 писал(а):

Фильм шляпа

Да ну?!

да нормальный фильм вчера посмотрел очень даже смотрибельноpiratbit.org



    Дорогой пользователь! Огромная просьба, поблагодарите релизера, оцените раздачу и оставьте свои комментарий, если Вы скачали Судная ночь 3 через торрент бесплатно! Внесите свою лепту в развитие PiratBit!
    Комментировать посты могут только пользователи прошедшие не сложную регистрацию
    Показать сообщения:    

    Судная ночь 3 через торрент
    Скачать бесплатно Судная ночь 3
    Судная ночь 3 скачать торрент
    Судная ночь 3 смотреть онлайн
    Cкачать фильм Судная ночь 3 бесплатно
    Судная ночь 3 скачать торрент в хорошем качестве
    Судная ночь 3 смотреть онлайн бесплатно в хорошем качестве


    Вы не можете начинать темы
    Вы не можете отвечать на сообщения
    Вы не можете редактировать свои сообщения
    Вы не можете удалять свои сообщения
    Вы не можете голосовать в опросах
    Вы не можете прикреплять файлы к сообщениям
    Вы можете скачивать файлы