Доктор Стрэндж

Лицензия

Добыча

Дубляж

Дом дракона

1 сезон

Тор

Дубляж

В эфире

Дубляж

Там, где раки поют

MVO

Властелин колец

1 сезон

Ultimate

pack

Рекомендуем

30

Пиратка

ВАЖНО

ВАЖНО

Ghostwire

Пиратка

jed

RePack

nioh2

RePack

RDR2

RePack

NEED FOR SPEED™ PAYBACK

RePack

скачать торрент

Кинопоиск HD

Острые козырьки 6 сезон

6 сезон

FAR CRY 6

RePack

скачать торрент

Лицензия

скачать торрент

MVO

1

1 сезон

скачать торрент

1 сезон

скачать торрент

Лицензия

  

Шагающий по ветру / Windwalker (Кит Мэрилл) [1980, драма, приключения, вестерн, BDRip 720p ] VO

Шагающий по ветру через торрент piratbit.org

Размер: 4.09 GB | Добавлен: 6 лет 2 мес. назад | Торрент скачан:29 раз
Смотреть онлайн | Скачать   

24-09-2016 11:22 Шагающий по ветру Скачать торрент  

Название: Шагающий по ветру
Оригинальное название: Windwalker
Год выпуска: 1980
Страна: США
Жанр: драма, приключения, вестерн
Продолжительность: 01:46:45
Перевод: любительский одноголосый

Режиссёр: Кит Мэрилл

В ролях: Тревор Ховард, Ник Рамус, Джеймс Римар, Серена Хедин, Дасти МакКри, Сильвана Галлардо, Эмерсон Джон, Джейсон Стивенс, Роберта Дэхеррера, Иван Нараньо, Чиф Таг Смит, Фределия Смит, Ванни-Омни-Ска-Робидо, Доминик Галлегос, Джейсон Тахбо, Бенжамин Хубер, Дэвид Хубер, Руди Диас, Билли Драго, Гарольд Госс-Койот, Марвин Такес Хосе, Рой Дж. Кохе, Кертис Пауэрс

Описание: Покойный вождь племени возвращается к жизни, чтобы спасти свой народ от своего же сына, воспитанного в другом племени и ставшего заклятым врагом для бывших соплеменников...



Качество: BDRip 720p Сравнение с исходником
Формат: MKV
Видео: MPEG-4 AVC, 4911 Кбит/с, 964x720, 23,976 кадра/с
Аудио 4: русский, AC3, 192 kbps, 2 ch, 48 kHz [любительский одноголосый, неполный]
Аудио 5: английский, AC3, 384 kbps, 2 ch, 48 kHz [оригинал]
Субтитры 1: русские
Субтитры 2: английские
Общее
Уникальный идентификатор : 233371604379306027083558115919146322493 (0xAF91BC71562D3203B6AA3B895A810A3D)
Полное имя : D:\Video\Шагающий по ветру.1980.BDRip.720p.mkv
Формат : Matroska
Версия формата : Version 4 / Version 2
Размер файла : 4,09 Гбайт
Продолжительность : 1 ч. 46 м.
Общий поток : 5489 Кбит/сек
Дата кодирования : UTC 2016-09-24 01:01:28
Программа кодирования : mkvmerge v8.2.0 ('World of Adventure') 64bit
Библиотека кодирования : libebml v1.3.1 + libmatroska v1.4.2

Видео
Идентификатор : 1
Формат : AVC
Формат/Информация : Advanced Video Codec
Профиль формата : High@L4.1
Параметр CABAC формата : Да
Параметр ReFrames формата : 9 кадров
Идентификатор кодека : V_MPEG4/ISO/AVC
Продолжительность : 1 ч. 46 м.
Битрейт : 4911 Кбит/сек
Ширина : 964 пикселя
Высота : 720 пикселей
Соотношение сторон : 4:3
Режим частоты кадров : Постоянный
Частота кадров : 23,976 (24000/1001) кадра/сек
Цветовое пространство : YUV
Субдискретизация насыщенности : 4:2:0
Битовая глубина : 8 бит
Тип развёртки : Прогрессивная
Бит/(Пиксели*Кадры) : 0.295
Размер потока : 3,66 Гбайт (89%)
Библиотека кодирования : x264 core 146 r2538 121396c
Настройки программы : cabac=1 / ref=9 / deblock=1:-3:-3 / analyse=0x3:0x113 / me=umh / subme=10 / psy=1 / psy_rd=1.00:0.15 / mixed_ref=1 / me_range=32 / chroma_me=1 / trellis=2 / 8x8dct=1 / cqm=0 / deadzone=21,11 / fast_pskip=1 / chroma_qp_offset=-3 / threads=6 / lookahead_threads=1 / sliced_threads=0 / nr=0 / decimate=1 / interlaced=0 / bluray_compat=0 / constrained_intra=0 / bframes=12 / b_pyramid=2 / b_adapt=2 / b_bias=0 / direct=1 / weightb=1 / open_gop=0 / weightp=2 / keyint=230 / keyint_min=23 / scenecut=40 / intra_refresh=0 / rc_lookahead=40 / rc=crf / mbtree=0 / crf=19.3 / qcomp=0.60 / qpmin=0 / qpmax=69 / qpstep=4 / vbv_maxrate=40000 / vbv_bufsize=50000 / crf_max=0.0 / nal_hrd=none / filler=0 / ip_ratio=1.40 / pb_ratio=1.30 / aq=1:1.00
Язык : English
Default : Да
Forced : Нет

Аудио #1
Идентификатор : 2
Формат : AC-3
Формат/Информация : Audio Coding 3
Расширение режима : CM (complete main)
Параметр Endianness формата : Big
Идентификатор кодека : A_AC3
Продолжительность : 1 ч. 46 м.
Вид битрейта : Постоянный
Битрейт : 192 Кбит/сек
Каналы : 2 канала
Расположение каналов : Front: L R
Частота : 48,0 КГц
Частота кадров : 31,250 кадров/сек (1536 spf)
Метод сжатия : С потерями
Размер потока : 147 Мбайт (3%)
Заголовок : любительский одноголосый
Язык : Russian
Default : Да
Forced : Нет

Аудио #2
Идентификатор : 3
Формат : AC-3
Формат/Информация : Audio Coding 3
Расширение режима : CM (complete main)
Параметр Endianness формата : Big
Идентификатор кодека : A_AC3
Продолжительность : 1 ч. 46 м.
Вид битрейта : Постоянный
Битрейт : 384 Кбит/сек
Каналы : 2 канала
Расположение каналов : Front: L R
Частота : 48,0 КГц
Частота кадров : 31,250 кадров/сек (1536 spf)
Метод сжатия : С потерями
Размер потока : 293 Мбайт (7%)
Заголовок : original
Язык : English
Default : Нет
Forced : Нет

Текст #1
Идентификатор : 4
Формат : UTF-8
Идентификатор кодека : S_TEXT/UTF8
Идентификатор кодека/Информация : UTF-8 Plain Text
Продолжительность : 1 ч. 38 м.
Битрейт : 11 бит/сек
Count of elements : 185
Размер потока : 8,59 Кбайт (0%)
Заголовок : русские
Язык : Russian
Default : Нет
Forced : Нет

Текст #2
Идентификатор : 5
Формат : UTF-8
Идентификатор кодека : S_TEXT/UTF8
Идентификатор кодека/Информация : UTF-8 Plain Text
Продолжительность : 1 ч. 35 м.
Битрейт : 6 бит/сек
Count of elements : 141
Размер потока : 4,39 Кбайт (0%)
Заголовок : английские
Язык : English
Default : Нет
Forced : Нет



Скачать Шагающий по ветру через торрент http://s011.radikal.ru/i318/1609/fc/28ee7c7c5440.jpg Скачать, смотреть онлайн Шагающий по ветру бесплантно в хорошем качестве Описание: Покойный вождь племени возвращается к жизни, чтобы спасти свой народ от своего же сына, воспитанного в другом племени и ставшего ... 5 10 1
Info! Золотая раздача, скачанное не засчитывается.
Торрент: Зарегистрирован [2016-09-24 11:22] · скачан: 29 раз
Статус: √ проверено
Размер: 4.09 GB
Как cкачать? Как скачать Шагающий по ветру через торрент | UTorrent

% Раздел Тема Автор DL S | L
Фильмы [HD 720p, 1080p] (Звук Cam, VO, DVO) [ 10.11 GB ] Шагающий по ветру / Windwalker | | 1080p msltel Скачать
1 | 0
Фильмы (Blu-ray, BD-Remux, HDDVD) [ 16.75 GB ] Шагающий по ветру / Windwalker | | 1080p Russian Mafia Скачать
1 | 0

28-11-2019 20:33  


Отключить вcю реклaмy на сайте, в т.ч. и в плеере онлайн просмотра!

    Дорогой пользователь! Огромная просьба, поблагодарите релизера, оцените раздачу и оставьте свои комментарий, если Вы скачали Шагающий по ветру через торрент бесплатно!!
    Комментировать посты могут только пользователи прошедшие не сложную регистрацию
    Показать сообщения:    


    Шагающий по ветру через торрент
    Скачать бесплатно Шагающий по ветру
    Шагающий по ветру скачать торрент
    Шагающий по ветру смотреть онлайн
    Cкачать фильм Шагающий по ветру бесплатно
    Шагающий по ветру скачать торрент в хорошем качестве
    Шагающий по ветру смотреть онлайн бесплатно в хорошем качестве
    Вы не можете начинать темы
    Вы не можете отвечать на сообщения
    Вы не можете редактировать свои сообщения
    Вы не можете удалять свои сообщения
    Вы не можете голосовать в опросах
    Вы не можете прикреплять файлы к сообщениям
    Вы можете скачивать файлы
    Шагающий по ветру / Windwalker [1980, драма, приключения, вестерн, BDRip 720p ] VO смотреть онлайн, скачать торрент picoco.icu