Присоединяйтесь к нам в Telegram!, здесь всегда актуальный адрес сайта, оперативная поддержка и многое другое!!

>

5.9

iTunes

7.4

iTunes

9.4

1 сезон

1

7.4

2 сезон

7.2

iTunes

7.3

1 сезон

13

6.1

iTunes

8.3

GOG

30

ULTIMATE

pack

9.9

Лицензия

ВАЖНО

ИГРА 18+

pack

7.3

RePack

MK11

7.7

RePack

jed

7.8

RePack

fifa19

8.5

RePack

RDR2

RePack

NEED FOR SPEED™ PAYBACK

5 сезон

9 сезон

Бесстыжие 9 сезон

Все сериалы

все сериалы на PB.wtf

RePack

FAR CRY 5

Anonymous, добрый день, мы катастрофически не успеваем собрать деньги на оплату серверов, помогите нам пожалуйста 5,10,15р., для нас важна любая помощь . В качестве благодарности мы отключим Вам всю рекламу на сайте (укажите свой ник в строку Ваше имя)!

×
  
Magnet ссылка

Мой кореш - зомби / Amigo Undead (Райан Нагата / Ryan Nagata) [2015 г., ужасы, комедия, HDRip] DVO [den904&DeadSno] piratbit.org

Мой кореш - зомби через торрент piratbit.org

Размер: 1.46 GB | Добавлен: 5 лет 2 мес. назад | Торрент скачан:55 раз
Смотреть онлайн Мой кореш - зомби | Скачать    Ребята, помогите собрать деньги на оплату серверов!!!

25-09-2016 17:29 Мой кореш - зомби Скачать торрент  

Мой кореш - зомби / Amigo Undead
Год выпуска: 2015
Страна: США
Жанр: ужасы, комедия
Продолжительность: 01:23:58
Перевод: Любительский (двухголосый) 2D [den904&DeadSno]
Субтитры: отсутствуют

Режиссер: Райан Нагата / Ryan Nagata

rating


В ролях:

Эрик Акоста, Стив Эйджи, Дэвид Кленнон, Джефф Брайан

Описание:

"Мой кореш - зомби" - это история Кевина Островски, который отправляется со своим братом-неудачником, Нормом, в поход. С ними отправляется несколько чудаковатых друзей Норма. Когда один из друзей случайно умирает в пустыне, они принимают решение похоронить его там, но дело принимает непредвиденный оборот, поскольку пустынька-то оказывается с секретом.

Качество: HDRip
Формат: AVI
Видео кодек: XviD
Аудио кодек: AC3
Видео: 720x400 (1.80:1), 23.976 fps, XviD build 67 ~2289 kbps avg, 0.33 bit/pixel
Аудио#1: 48 kHz, AC3 Dolby Digital, 2/0 (L,R) ch, ~192 kbps
скриншот  скриншот  скриншот  скриншот  скриншот  

скриншот  
Общее
Полное имя : D:\Amigo Undead (2015) HDRip .avi\Amigo Undead (2015) HDRip .avi
Формат : AVI
Формат/Информация : Audio Video Interleave
Профиль формата : OpenDML
Размер файла : 1,46 Гбайт
Продолжительность : 1 ч. 24 м.
Общий поток : 2487 Кбит/сек
Название фильма : Rip by basma4i
Программа кодирования : Lavf57.41.100

Видео
Идентификатор : 0
Формат : MPEG-4 Visual
Профиль формата : Simple@L5
Параметр BVOP формата : Нет
Параметр QPel формата : Нет
Параметр GMC формата : Без точки перехода
Параметр матрицы формата : Default (H.263)
Идентификатор кодека : XVID
Идентификатор кодека/Подсказка : XviD
Продолжительность : 1 ч. 23 м.
Битрейт : 2285 Кбит/сек
Ширина : 720 пикселей
Высота : 400 пикселей
Соотношение сторон : 16:9
Частота кадров : 23,976 (24000/1001) кадра/сек
Цветовое пространство : YUV
Субдискретизация насыщенности : 4:2:0
Битовая глубина : 8 бит
Тип развёртки : Прогрессивная
Метод сжатия : С потерями
Бит/(Пиксели*Кадры) : 0.331
Размер потока : 1,34 Гбайт (92%)
Библиотека кодирования : XviD 67

Аудио
Идентификатор : 1
Формат : AC-3
Формат/Информация : Audio Coding 3
Расширение режима : CM (complete main)
Параметр Endianness формата : Big
Идентификатор кодека : 2000
Продолжительность : 1 ч. 24 м.
Вид битрейта : Постоянный
Битрейт : 192 Кбит/сек
Каналы : 2 канала
Расположение каналов : Front: L R
Частота : 48,0 КГц
Частота кадров : 31,250 кадров/сек (1536 spf)
Битовая глубина : 16 бит
Метод сжатия : С потерями
Размер потока : 115 Мбайт (8%)
Выравнивание : Соединение по промежуткам
Продолжительность промежутка : 32 мс. (0,77 видеокадр)
piratbit.org



Скачать Мой кореш - зомби через торрент https://pic1.kartinco.top/images/10/w34ty.jpg Скачать, смотреть онлайн Мой кореш - зомби бесплантно в хорошем качестве Описание: "Мой кореш - зомби" - это история Кевина Островски, который отправляется со своим братом-неудачником, Нормом, в поход. С ними ... 10 10 8
Торрент: Зарегистрирован [2016-09-25 17:29] · скачан: 55 раз
Статус: T временная
Размер: 1.46 GB
Как cкачать? Как скачать Мой кореш - зомби через торрент | UTorrent

28-11-2019 20:33  

Отключить всю рекламу на сайте

25-09-2016 20:33 Мой кореш - зомби Скачать торрент  

Всем приятного просмотра) piratbit.org



    Дорогой пользователь! Огромная просьба, поблагодарите релизера, оцените раздачу и оставьте свои комментарий, если Вы скачали Мой кореш - зомби через торрент бесплатно!
    Комментировать посты могут только пользователи прошедшие не сложную регистрацию
    Показать сообщения:    

    Мой кореш - зомби через торрент
    Скачать бесплатно Мой кореш - зомби
    Мой кореш - зомби скачать торрент
    Мой кореш - зомби смотреть онлайн
    Cкачать фильм Мой кореш - зомби бесплатно
    Мой кореш - зомби скачать торрент в хорошем качестве
    Мой кореш - зомби смотреть онлайн бесплатно в хорошем качестве


    Вы не можете начинать темы
    Вы не можете отвечать на сообщения
    Вы не можете редактировать свои сообщения
    Вы не можете удалять свои сообщения
    Вы не можете голосовать в опросах
    Вы не можете прикреплять файлы к сообщениям
    Вы можете скачивать файлы