Присоединяйтесь к нам в Telegram!, здесь всегда актуальный адрес сайта, оперативная поддержка и многое другое!!

>

5.9

iTunes

7.4

iTunes

9.4

1 сезон

1

7.4

2 сезон

7.2

iTunes

7.3

iTunes

13

6.1

iTunes

8.3

Пиратка

30

ULTIMATE

pack

9.9

Лицензия

ВАЖНО

ИГРА 18+

pack

7.3

RePack

MK11

7.7

RePack

jed

7.8

RePack

fifa19

8.5

RePack

RDR2

RePack

NEED FOR SPEED™ PAYBACK

5 сезон

9 сезон

Бесстыжие 9 сезон

Все сериалы

все сериалы на PB.wtf

RePack

FAR CRY 5

Anonymous, добрый вечер, мы катастрофически не успеваем собрать деньги на оплату серверов, помогите нам пожалуйста 5,10,15р., для нас важна любая помощь . В качестве благодарности мы отключим Вам всю рекламу на сайте (укажите свой ник в строку Ваше имя)!

×
  
Magnet ссылка

Смертельный оргазм / Deathgasm (Джейсон Ли Хауден ) [2015, ужасы, комедия, DVDRip] Любительский [одноголосый] - Васька Куролесов piratbit.org

Смертельный оргазм через торрент piratbit.org

Размер: 1.38 GB | Добавлен: 5 лет 2 мес. назад | Торрент скачан:133 раза
Смотреть онлайн Смертельный оргазм | Скачать    Ребята, помогите собрать деньги на оплату серверов!!!

30-09-2016 20:42 Смертельный оргазм Скачать торрент  

скриншот  Смертельный оргазм / Deathgasm

Год выпуска: 2015
Страна: Новая Зеландия
Жанр: ужасы, комедия
Продолжительность: 01:26:09
Перевод: Любительский [одноголосый] - Васька Куролесов
Внимание! Ненормативная лексика!
Режиссер: Джейсон Ли Хауден
В ролях: Мило Коуторн (Brodie), Джеймс Блейк (Zakk), Кимберли Кроссман (Medina), Сэм Беркли (Dion), Дэниэл Крессвелл (Giles), Делани Таброн (Shanna), Стефан Уре (Rikki Daggers), Колин Мой (Uncle Albert), Джоди Риммер (Aunt Mary), Ник Хоскинс-Смит (David), Эролл Шанд (Byron), Кейт Эллиотт (Abigail)
Описание:
Два парня создают хеви металлическую группу. Но в момент их игры они пускают в этот мир злые силы, которые обещают им славу и величие.
Рейтинг:

Качество: DVDRip
Формат: AVI
Видео: XviD, 720x304 (2.35:1), 2089 kbps, 23,976 fps, 0,398 bpp
Аудио: AC3 / 2.0 / 48 kHz / 192 kbps /

Код:

General
Complete name                            : D:\торренты\Deathgasm 2015_KypoJIecoB.avi
Format                                   : AVI
Format/Info                              : Audio Video Interleave
File size                                : 1.38 GiB
Duration                                 : 1 h 26 min
Overall bit rate                         : 2 291 kb/s

Video
ID                                       : 0
Format                                   : MPEG-4 Visual
Format profile                           : Advanced Simple@L5
Format settings, BVOP                    : 2
Format settings, QPel                    : No
Format settings, GMC                     : No warppoints
Format settings, Matrix                  : Default (H.263)
Codec ID                                 : XVID
Codec ID/Hint                            : XviD
Duration                                 : 1 h 26 min
Bit rate                                 : 2 089 kb/s
Width                                    : 720 pixels
Height                                   : 304 pixels
Display aspect ratio                     : 2.35:1
Frame rate                               : 23.976 (23976/1000) FPS
Color space                              : YUV
Chroma subsampling                       : 4:2:0
Bit depth                                : 8 bits
Scan type                                : Progressive
Compression mode                         : Lossy
Bits/(Pixel*Frame)                       : 0.398
Stream size                              : 1.26 GiB (91%)
Writing library                          : XviD 67

Audio
ID                                       : 1
Format                                   : AC-3
Format/Info                              : Audio Coding 3
Mode extension                           : CM (complete main)
Format settings, Endianness              : Big
Codec ID                                 : 2000
Duration                                 : 1 h 26 min
Bit rate mode                            : Constant
Bit rate                                 : 192 kb/s
Channel(s)                               : 2 channels
Channel positions                        : Front: L R
Sampling rate                            : 48.0 kHz
Frame rate                               : 31.250 FPS (1536 spf)
Compression mode                         : Lossy
Stream size                              : 118 MiB (8%)
Alignment                                : Split accross interleaves
Interleave, duration                     : 42  ms (1.00 video frame)
Interleave, preload duration             : 500  ms

piratbit.org



Скачать Смертельный оргазм через торрент http://i82.fastpic.ru/big/2016/1001/9f/6a6d9a79be69f4cce796e2c39ec8749f.png Скачать, смотреть онлайн Смертельный оргазм бесплантно в хорошем качестве Описание: Два парня создают хеви металлическую группу. Но в момент их игры они пускают в этот мир злые силы, которые обещают им славу и ... 10 10 7
Торрент: Зарегистрирован [2016-09-30 20:42] · скачан: 133 раз
Статус: T временная
Размер: 1.38 GB
Как cкачать? Как скачать Смертельный оргазм через торрент | UTorrent

28-11-2019 20:33  

Отключить всю рекламу на сайте

    Дорогой пользователь! Огромная просьба, поблагодарите релизера, оцените раздачу и оставьте свои комментарий, если Вы скачали Смертельный оргазм через торрент бесплатно!
    Комментировать посты могут только пользователи прошедшие не сложную регистрацию
    Показать сообщения:    

    Смертельный оргазм через торрент
    Скачать бесплатно Смертельный оргазм
    Смертельный оргазм скачать торрент
    Смертельный оргазм смотреть онлайн
    Cкачать фильм Смертельный оргазм бесплатно
    Смертельный оргазм скачать торрент в хорошем качестве
    Смертельный оргазм смотреть онлайн бесплатно в хорошем качестве


    Вы не можете начинать темы
    Вы не можете отвечать на сообщения
    Вы не можете редактировать свои сообщения
    Вы не можете удалять свои сообщения
    Вы не можете голосовать в опросах
    Вы не можете прикреплять файлы к сообщениям
    Вы можете скачивать файлы