Доктор Стрэндж

Лицензия

Добыча

MVO

Дом дракона

1 сезон

Тор

Лицензия

Мэверик

Лицензия

Там, где раки поют

MVO

Властелин колец

1 сезон

Ultimate

pack

Рекомендуем

30

Repack

ВАЖНО

ВАЖНО

Ghostwire

RePack

jed

RePack

nioh2

RePack

RDR2

RePack

NEED FOR SPEED™ PAYBACK

RePack

скачать торрент

Кинопоиск HD

Острые козырьки 6 сезон

6 сезон

FAR CRY 6

RePack

скачать торрент

Лицензия

скачать торрент

MVO

1

1 сезон

скачать торрент

1 сезон

скачать торрент

Лицензия

  

Звезда (Александр Иванов ) [1949, драма, военный, DVDRip]

Звезда через торрент piratbit.org

Размер: 1.37 GB | Добавлен: 6 лет назад | Торрент скачан:1 раз
Смотреть онлайн Звезда | Скачать   

01-10-2016 06:32 Звезда Скачать торрент  

Звезда

Год выпуска: 1949
Страна: СССР
Жанр: драма, военный

Продолжительность: 01:28:12
Перевод: Не требуется [Русский]
Режиссер: Александр Иванов
В ролях: Анатолий Вербицкий (лейтенант Травкин), Николай Крючков (Мамочкин), Алексей Покровский (Мещеряков), Ирина Радченко (Катя Симакова), Лидия Сухаревская (Улыбышева), Олег Жаков (Сербиченко), Александр Хлопотов (Ковалев), Мовсум Санани (Алиев), Василий Меркурьев (Аниканов), Павел Волков (разведчик), Владимир Марьев (разведчик), Н. Степанов (разведчик)
Описание:
О маленькой группе разведчиков, которая ушла в тыл врага, сумела передать необходимые сведения, но не смогла вернуться назад. Время действия - Великая Отечественная.

Качество: DVDRip
Формат: AVI
Видео: DivX 5, 704x528 (4:3), 2016 kbps, 25 fps, 0,217 bpp
Аудио: AC3 / 2.0 / 48 kHz / 192 kbps /

General
Complete name Zvezda.avi
Format : AVI
Format/Info : Audio Video Interleave
File size : 1.37 GiB
Duration : 1 h 28 min
Overall bit rate : 2 218 kb/s
Writing application : VirtualDubModRus 1.5.10.2 (build 2542/release)
Writing library : VirtualDubMod build 2542/release

Video
ID : 0
Format : MPEG-4 Visual
Format settings, BVOP : 1
Format settings, QPel : No
Format settings, GMC : No warppoints
Format settings, Matrix : Default (H.263)
Muxing mode : Packed bitstream
Codec ID : DX50
Codec ID/Hint : DivX 5
Duration : 1 h 28 min
Bit rate : 2 017 kb/s
Width : 704 pixels
Height : 528 pixels
Display aspect ratio : 4:3
Frame rate : 25.000 FPS
Color space : YUV
Chroma subsampling : 4:2:0
Bit depth : 8 bits
Scan type : Progressive
Compression mode : Lossy
Bits/(Pixel*Frame) : 0.217
Stream size : 1.24 GiB (91%)
Writing library : DivX 6.8.3-6.8.4 (UTC 2008-06-07)

Audio
ID : 1
Format : AC-3
Format/Info : Audio Coding 3
Mode extension : CM (complete main)
Format settings, Endianness : Big
Codec ID : 2000
Duration : 1 h 28 min
Bit rate mode : Constant
Bit rate : 192 kb/s
Channel(s) : 2 channels
Channel positions : Front: L R
Sampling rate : 48.0 kHz
Frame rate : 31.250 FPS (1536 spf)
Compression mode : Lossy
Stream size : 121 MiB (9%)
Alignment : Split accross interleaves
Interleave, duration : 40 ms (1.00 video frame)
Interleave, preload duration : 512 ms
Скриншоты:



Скачать Звезда через торрент http://i1-imageban-ru.translate.goog/out/2016/10/01/4ce62c8091c318b79b97fea18c45193c.jpg Скачать, смотреть онлайн Звезда бесплантно в хорошем качестве Описание: О маленькой группе разведчиков, которая ушла в тыл врага, сумела передать необходимые сведения, но не смогла вернуться назад. ... 10 10 3
Info! Золотая раздача, скачанное не засчитывается.
Торрент: Зарегистрирован [2016-10-01 06:32] · скачан: 1 раз
Статус: √ проверено
Размер: 1.37 GB
Как cкачать? Как скачать Звезда через торрент | UTorrent

28-11-2019 20:33  

Отключить вcю реклaмy на сайте

    Дорогой пользователь! Огромная просьба, поблагодарите релизера, оцените раздачу и оставьте свои комментарий, если Вы скачали Звезда через торрент бесплатно!!
    Комментировать посты могут только пользователи прошедшие не сложную регистрацию
    Показать сообщения:    


    Звезда через торрент
    Скачать бесплатно Звезда
    Звезда скачать торрент
    Звезда смотреть онлайн
    Cкачать фильм Звезда бесплатно
    Звезда скачать торрент в хорошем качестве
    Звезда смотреть онлайн бесплатно в хорошем качестве
    Вы не можете начинать темы
    Вы не можете отвечать на сообщения
    Вы не можете редактировать свои сообщения
    Вы не можете удалять свои сообщения
    Вы не можете голосовать в опросах
    Вы не можете прикреплять файлы к сообщениям
    Вы можете скачивать файлы