1 сезон

3 сезон

iTunes

1

iTunes

DUB Netflix

iTunes

13

1 сезон

RePack

30

Deluxe

pack

Легкие деньги

ВАЖНО

ИГРА 18+

pack

RePack

MK11

RePack

jed

RePack

fifa19

RePack

RDR2

RePack

NEED FOR SPEED™ PAYBACK

4 сезон

9 сезон

Бесстыжие 9 сезон

Все сериалы

все сериалы на PB.wtf

RePack

FAR CRY 5

Anonymous, добрый вечер, мы не успеваем до 1 числа собрать деньги на оплату серверов, помогите нам пожалуйста в это трудное время. В качестве благодарности мы отключим Вам всю рекламу на сайте (укажите свой ник в строку Ваше имя)!

×
  
Magnet ссылка

Безумный тридцатник / Dirty 30 (Эндрю Буш) [2016 г., комедия, WEB-DLRip, Любительский многоголосый / GreenРай Studio] piratbit.org

Безумный тридцатник через торрент piratbit.org

Размер: 1.37 GB | Добавлен: 4 года 8 мес. назад | Торрент скачан:448 раз
Скачать  

02-10-2016 09:35 Безумный тридцатник Скачать торрент  

Безумный тридцатник / Dirty 30
Год выпуска: 2016
Страна: США
Жанр: комедия
Продолжительность: 01:27:06
Перевод: Любительский многоголосый | GreenРай Studio

Режиссер: Эндрю Буш



В ролях: Мамри Харт, Адам Лустик, Джозелин Хьюз

Описание: Фильм рассказывает о трех близких подругах – Кейт, Иви и Чарли, которые погрязли в повседневной рутине. Кейт проводит свои дни на посредственной работе, а ночами пребывает в одиночестве или же на свиданиях, которые постоянно заканчиваются для нее неудачами. Иви замужем, но родня мужа сводит ее с ума. У Чарли есть девушка ее мечты, но там тоже не все гладко. Накануне своего 30-летия Кейт разрешает подружкам устроить ей вечеринку. Однако в итоге простой праздник оборачивается полным безумием.

Качество: WEB-DLRip
Формат: AVI
Видео кодек: XviD
Аудио кодек: AC3
Видео: XviD, 720x384, 23.976 fps, 1 854 kb/s
Аудио: AC3, 48.0 kHz, (6 ch), 384 kb/s

сэмпл http://sendfile.su/1270515


General
Complete name : C:\PiratBit\BezymHi1.3OnHyk.2016.P.WEB-DLRip.1400MB.GreenРай Studio.avi
Format : AVI
Format/Info : Audio Video Interleave
File size : 1.37 GiB
Duration : 1 h 27 min
Overall bit rate : 2 247 kb/s
Writing application : VirtualDubMod 1.5.10.2 (build 2540/release)
Writing library : VirtualDubMod build 2540/release

Video
ID : 0
Format : MPEG-4 Visual
Format profile : Advanced Simple@L5
Format settings, BVOP : 2
Format settings, QPel : No
Format settings, GMC : No warppoints
Format settings, Matrix : Default (MPEG)
Codec ID : XVID
Codec ID/Hint : XviD
Duration : 1 h 27 min
Bit rate : 1 854 kb/s
Width : 720 pixels
Height : 384 pixels
Display aspect ratio : 1.85:1
Frame rate : 23.976 (24000/1001) FPS
Color space : YUV
Chroma subsampling : 4:2:0
Bit depth : 8 bits
Scan type : Progressive
Compression mode : Lossy
Bits/(Pixel*Frame) : 0.280
Stream size : 1.13 GiB (82%)
Writing library : XviD 1.2.1 (UTC 2008-12-04)

Audio
ID : 1
Format : AC-3
Format/Info : Audio Coding 3
Mode extension : CM (complete main)
Format settings, Endianness : Big
Codec ID : 2000
Duration : 1 h 27 min
Bit rate mode : Constant
Bit rate : 384 kb/s
Channel(s) : 6 channels
Channel positions : Front: L C R, Side: L R, LFE
Sampling rate : 48.0 kHz
Frame rate : 31.250 FPS (1536 spf)
Compression mode : Lossy
Stream size : 239 MiB (17%)
Alignment : Split accross interleaves
Interleave, duration : 42 ms (1.00 video frame)
Interleave, preload duration : 500 ms

piratbit.org



Скачать Безумный тридцатник через торрент https://st.kp.yandex.net/images/film_iphone/iphone360_970033.jpg Скачать фильм Безумный тридцатник через торрент бесплантно в хорошем качестве Описание: Фильм рассказывает о трех близких подругах – Кейт, Иви и Чарли, которые погрязли в повседневной рутине. Кейт проводит свои дни на ... 9 10 7
Торрент: Зарегистрирован [2016-10-02 09:35] · скачан: 448 раз
Статус: T временная
Размер: 1.37 GB
Как cкачать? Как скачать Безумный тридцатник через торрент | UTorrent

% Раздел Тема Автор DL S | L
T Релизы по Парсеру [Игры, Сериалы и Фильмы и другое...] [ 3.27 GB ] Безумный тридцатник / Dirty 30 [2016 WEB-DL 1080p Любительский многоголосый ] Airsoft93rus Скачать
1 | 0

28-11-2019 20:33  

Отключить всю рекламу на сайте

02-10-2016 10:13 Безумный тридцатник Скачать торрент  

Все симпатичные актрисы походу умерли,второй скрин напугал больше чем Заклятие 2piratbit.org



02-10-2016 10:40 Безумный тридцатник Скачать торрент  

точнякpiratbit.org



02-10-2016 19:24 Безумный тридцатник Скачать торрент  

Судя по их лицам, им уже давно за "Безумный тридцатник"piratbit.org



    Дорогой пользователь! Огромная просьба, поблагодарите релизера, оцените раздачу и оставьте свои комментарий, если Вы скачали Безумный тридцатник через торрент бесплатно! Внесите свою лепту в развитие PiratBit!
    Комментировать посты могут только пользователи прошедшие не сложную регистрацию
    Показать сообщения:    

    Безумный тридцатник через торрент
    Скачать бесплатно Безумный тридцатник
    Безумный тридцатник скачать торрент
    Безумный тридцатник смотреть онлайн
    Cкачать фильм Безумный тридцатник бесплатно
    Безумный тридцатник скачать торрент в хорошем качестве
    Безумный тридцатник смотреть онлайн бесплатно в хорошем качестве


    Вы не можете начинать темы
    Вы не можете отвечать на сообщения
    Вы не можете редактировать свои сообщения
    Вы не можете удалять свои сообщения
    Вы не можете голосовать в опросах
    Вы не можете прикреплять файлы к сообщениям
    Вы можете скачивать файлы