Лицензия

MVO

1

1 сезон

Лицензия

Лицензия

13

MVO

1 сезон

Deluxe Edition

pack

Рекомендуем

30

Repack

ВАЖНО

ВАЖНО

Ghostwire

RePack

jed

RePack

fifa19

RePack

RDR2

RePack

NEED FOR SPEED™ PAYBACK

RePack

Кинопоиск HD

 Острые козырьки 6 сезон

6 сезон

FAR CRY 6

RePack

Лицензия

MVO

1

1 сезон

1 сезон

Лицензия

  

Не горюй! (Георгий Данелия ) [1968, драма, комедия, DVDRip-AVC]

Не горюй! через торрент piratbit.org

Размер: 1.76 GB | Добавлен: 5 лет 11 мес. назад | Торрент скачан:147 раз
Смотреть онлайн Не горюй! | Скачать   

02-10-2016 11:35 Не горюй! Скачать торрент  

Не горюй!

Год выпуска: 1968
Страна: СССР
Жанр: драма, комедия

Продолжительность: 01:29:00
Перевод: Не требуется [Русский]
Режиссер: Георгий Данелия
В ролях: Серго Закариадзе (Леван Цинцадзе, доктор), Вахтанг Кикабидзе (Бенджамин Глонти, доктор), Софико Чиаурели (Софико), Анастасия Вертинская (Мэри Цинцадзе, дочь Левана), Лия Гудадзе (Марго, жена Вано), Верико Анджапаридзе (мать Калантадзе), Сесилия Такаишвили (тетя Домна), Ариадна Шенгелая (Вахвари, принцесса), Гоги Кавтарадзе (Лука), Ипполит Хвичия (Сандро), Карло Саканделидзе (Додо, адвокат), Додо Абашидзе (князь Вамех Вахвари)
Описание:
После окончания Петербургского университета, полный надежд и грандиозных планов, возвращается в родной городок молодой врач Бенжамен Глонти. Но жизнь, как и до его отъезда, течет своим чередом: растет семейство сестры, усердно с утра до вечера переписывает бумаги ее муж Лука, время от времени спускаясь в погребок, чтобы «опрокинуть» рюмочку.
И по-прежнему, слоняясь без дела, «достает» всех адвокат Додо. Бенжамен стал горевать по несостоявшейся жизни. И тогда, чтобы поправить дела брата, решила Софико женить его на дочери старого лекаря…

Качество: DVDRip-AVC
Формат: MKV
Видео: AVC, 716@763x574 (4:3), 2320 kbps, 25 fps, 0,226 bpp
Аудио: русский / AC3 / 5.1 / 48 kHz / 448 kbps /
Навигация по главам: есть

General
Unique ID Не горюй.1968.mkv
Format : Matroska
Format version : Version 2
File size : 1.76 GiB
Duration : 1 h 29 min
Overall bit rate : 2 825 kb/s
Encoded date : UTC 2016-09-01 12:31:30
Writing application : mkvmerge v5.8.0 ('No Sleep / Pillow') built on Sep 2 2012 15:37:04
Writing library : libebml v1.2.3 + libmatroska v1.3.0
Comment : DVDRip-AVC
Encoded by : george$t®
Originally released : August 31st 2016

Video
ID : 1
Format : AVC
Format/Info : Advanced Video Codec
Format profile : High@L4.1
Format settings, CABAC : Yes
Format settings, ReFrames : 16 frames
Codec ID : V_MPEG4/ISO/AVC
Duration : 1 h 29 min
Bit rate : 2 320 kb/s
Width : 716 pixels
Height : 574 pixels
Display aspect ratio : 4:3
Original display aspect ratio : 4:3
Frame rate mode : Constant
Frame rate : 25.000 FPS
Color space : YUV
Chroma subsampling : 4:2:0
Bit depth : 8 bits
Scan type : Progressive
Bits/(Pixel*Frame) : 0.226
Stream size : 1.44 GiB (82%)
Title : Не горюй.1968
Writing library : x264 core 148 r2705kMod 3f5ed56
Encoding settings : cabac=1 / ref=16 / deblock=1:-1:0 / analyse=0x3:0x133 / me=umh / subme=10 / psy=1 / fade_compensate=0.00 / psy_rd=1.03:0.12 / mixed_ref=1 / me_range=32 / chroma_me=1 / trellis=2 / 8x8dct=1 / cqm=0 / deadzone=21,11 / fast_pskip=1 / chroma_qp_offset=-3 / threads=12 / lookahead_threads=2 / sliced_threads=0 / nr=0 / decimate=1 / interlaced=0 / bluray_compat=0 / constrained_intra=0 / fgo=0 / bframes=9 / b_pyramid=2 / b_adapt=2 / b_bias=0 / direct=3 / weightb=1 / open_gop=0 / weightp=2 / keyint=250 / keyint_min=25 / scenecut=40 / intra_refresh=0 / rc_lookahead=40 / rc=crf / mbtree=0 / crf=19.1000 / qcomp=0.65 / qpmin=0 / qpmax=69 / qpstep=4 / vbv_maxrate=50000 / vbv_bufsize=62500 / crf_max=0.0 / nal_hrd=none / filler=0 / ip_ratio=1.50 / pb_ratio=1.30 / aq=3:0.80
Language : Russian
Default : Yes
Forced : No
Color range : Limited
Color primaries : BT.601 PAL
Transfer characteristics : BT.470 System B, BT.470 System G
Matrix coefficients : BT.601

Audio
ID : 2
Format : AC-3
Format/Info : Audio Coding 3
Mode extension : CM (complete main)
Format settings, Endianness : Big
Codec ID : A_AC3
Duration : 1 h 29 min
Bit rate mode : Constant
Bit rate : 448 kb/s
Channel(s) : 6 channels
Channel positions : Front: L C R, Side: L R, LFE
Sampling rate : 48.0 kHz
Frame rate : 31.250 FPS (1536 spf)
Compression mode : Lossy
Stream size : 285 MiB (16%)
Title : Оригинал: AC-3; 16 bits 48 Khz; 5.1ch 448 Kbps; CBR.
Language : Russian
Default : Yes
Forced : No

Menu
00:00:00.000 : ru:Титры. Доктор Глонти
00:07:05.480 : ru:Бенджамен и его друзья
00:18:13.600 : ru:К Мэри!..
00:25:28.360 : ru:Два визита
00:37:05.960 : ru:Диагностика
00:41:30.640 : ru:Встреча с князем. Оскорбление
00:46:48.360 : ru:"Отшельник". Возвращенный долг
00:56:13.280 : ru:Тюрьма. Выкуп
01:02:05.080 : ru:Вызов и дуэль
01:07:12.240 : ru:Смерть и жизнь
01:13:58.640 : ru:Прощание
01:26:07.280 : ru:Эпилог
Скриншоты:



Скачать Не горюй! через торрент http://i4-imageban-ru.translate.goog/out/2016/10/02/696b8edc3e52328cb27e22b5b1257965.jpg Скачать, смотреть онлайн Не горюй! бесплантно в хорошем качестве Описание: После окончания Петербургского университета, полный надежд и грандиозных планов, возвращается в родной городок молодой врач ... 10 10 4
Торрент: Зарегистрирован [2016-10-02 11:35] · скачан: 147 раз
Статус: √ проверено
Размер: 1.76 GB
Как cкачать? Как скачать Не горюй! через торрент | UTorrent

28-11-2019 20:33  

Отключить вcю реклaмy на сайте

02-10-2016 18:44 Не горюй! Скачать торрент  

Мега смешная комедия!



    Дорогой пользователь! Огромная просьба, поблагодарите релизера, оцените раздачу и оставьте свои комментарий, если Вы скачали Не горюй! через торрент бесплатно!!
    Комментировать посты могут только пользователи прошедшие не сложную регистрацию
    Показать сообщения:    


    Не горюй! через торрент
    Скачать бесплатно Не горюй!
    Не горюй! скачать торрент
    Не горюй! смотреть онлайн
    Cкачать фильм Не горюй! бесплатно
    Не горюй! скачать торрент в хорошем качестве
    Не горюй! смотреть онлайн бесплатно в хорошем качестве
    Вы не можете начинать темы
    Вы не можете отвечать на сообщения
    Вы не можете редактировать свои сообщения
    Вы не можете удалять свои сообщения
    Вы не можете голосовать в опросах
    Вы не можете прикреплять файлы к сообщениям
    Вы можете скачивать файлы