Доктор Стрэндж

Лицензия

Добыча

MVO

Дом дракона

1 сезон

Тор

Лицензия

Мэверик

Лицензия

Там, где раки поют

MVO

Властелин колец

1 сезон

Ultimate

pack

Рекомендуем

30

Repack

ВАЖНО

ВАЖНО

Ghostwire

RePack

jed

RePack

nioh2

RePack

RDR2

RePack

NEED FOR SPEED™ PAYBACK

RePack

скачать торрент

Кинопоиск HD

Острые козырьки 6 сезон

6 сезон

FAR CRY 6

RePack

скачать торрент

Лицензия

скачать торрент

MVO

1

1 сезон

скачать торрент

1 сезон

скачать торрент

Лицензия

  

Случай в квадрате 36-80 (Михаил Туманишвили ) [1982, боевик, драма, DVDRip-AVC]

Случай в квадрате 36-80 через торрент piratbit.org

Размер: 1.47 GB | Добавлен: 6 лет назад | Торрент скачан:47 раз
Смотреть онлайн | Скачать   

02-10-2016 16:08 Случай в квадрате 36-80 Скачать торрент  

Случай в квадрате 36-80

Год выпуска: 1982
Страна: СССР
Жанр: боевик, драма

Продолжительность: 01:09:28
Перевод: Не требуется [Русский]
Режиссер: Михаил Туманишвили
В ролях: Борис Щербаков (Волк), Михай Волонтир (Скиба), Анатолий Кузнецов (Генерал-майор Павлов), Владимир Седов (Адмирал Спирин), Омар Волмер (Адмирал Ринк), Паул Буткевич (Тэрнер), Витаутас Томкус (Армстронг), Ивар Калныньш (Ален), Ромуальд Анцанс, Сергей Балабанов, Г. Гаузе, В. Васильев
Описание:
В Северной Атлантике, неподалеку от района, где проводят учения советские корабли Военно-Морского Флота, терпит аварию подводная лодка с вышедшим из строя атомным реактором.
Патрульная служба ВМС США пытается сбить советский самолет-спасатель, а тем временем с неуправляемой лодки в сторону советских кораблей уже направляются две крылатые ракеты. Советские моряки, уничтожив смертоносное оружие, топят подводную лодку противника — и ликвидируют возникновение глобального конфликта.

Качество: DVDRip-AVC
Формат: MKV
Видео: AVC, 698@744x574 (1.296), 2706 kbps, 25 fps, 0,270 bpp
Аудио: русский / AC3 / 2.0 / 48 kHz / 256 kbps /

General
Unique ID Случай в квадрате 36-80.mkv
Format : Matroska
Format version : Version 2
File size : 1.47 GiB
Duration : 1 h 9 min
Overall bit rate : 3 023 kb/s
Encoded date : UTC 2016-08-03 13:44:35
Writing application : mkvmerge v5.8.0 ('No Sleep / Pillow') built on Sep 2 2012 15:37:04
Writing library : libebml v1.2.3 + libmatroska v1.3.0

Video
ID : 1
Format : AVC
Format/Info : Advanced Video Codec
Format profile : High@L4.1
Format settings, CABAC : Yes
Format settings, ReFrames : 16 frames
Codec ID : V_MPEG4/ISO/AVC
Duration : 1 h 9 min
Bit rate : 2 707 kb/s
Width : 698 pixels
Height : 574 pixels
Display aspect ratio : 1.296
Original display aspect ratio : 1.297
Frame rate mode : Constant
Frame rate : 25.000 FPS
Color space : YUV
Chroma subsampling : 4:2:0
Bit depth : 8 bits
Scan type : Progressive
Bits/(Pixel*Frame) : 0.270
Stream size : 1.31 GiB (90%)
Title : Случай в квадрате 36-80
Writing library : x264 core 148 r2692kMod 64f4e24
Encoding settings : cabac=1 / ref=16 / deblock=1:-2:-2 / analyse=0x3:0x133 / me=umh / subme=11 / psy=1 / fade_compensate=0.00 / psy_rd=1.00:0.15 / mixed_ref=1 / me_range=32 / chroma_me=1 / trellis=2 / 8x8dct=1 / cqm=0 / deadzone=21,11 / fast_pskip=1 / chroma_qp_offset=-3 / threads=12 / lookahead_threads=2 / sliced_threads=0 / nr=0 / decimate=0 / interlaced=0 / bluray_compat=0 / constrained_intra=0 / fgo=0 / bframes=9 / b_pyramid=2 / b_adapt=2 / b_bias=0 / direct=3 / weightb=1 / open_gop=0 / weightp=2 / keyint=250 / keyint_min=25 / scenecut=40 / intra_refresh=0 / rc_lookahead=60 / rc=crf / mbtree=0 / crf=17.5000 / qcomp=0.60 / qpmin=0 / qpmax=69 / qpstep=4 / vbv_maxrate=50000 / vbv_bufsize=62500 / crf_max=0.0 / nal_hrd=none / filler=0 / ip_ratio=1.40 / pb_ratio=1.30 / aq=3:0.85
Language : Russian
Default : Yes
Forced : No
Color range : Limited
Color primaries : BT.601 PAL
Transfer characteristics : BT.470 System B, BT.470 System G
Matrix coefficients : BT.601

Audio
ID : 2
Format : AC-3
Format/Info : Audio Coding 3
Mode extension : CM (complete main)
Format settings, Endianness : Big
Codec ID : A_AC3
Duration : 1 h 9 min
Bit rate mode : Constant
Bit rate : 256 kb/s
Channel(s) : 2 channels
Channel positions : Front: L R
Sampling rate : 48.0 kHz
Frame rate : 31.250 FPS (1536 spf)
Compression mode : Lossy
Stream size : 127 MiB (8%)
Title : AC-3; 16 bit 48 Khz; 2.0ch 256 Kbps; CBR
Language : Russian
Default : Yes
Forced : No
Скриншоты:



Скачать Случай в квадрате 36-80 через торрент http://i3-imageban-ru.translate.goog/out/2016/10/02/40de50c3c1cc1f7e0119bae9bd6b5413.jpg Скачать, смотреть онлайн Случай в квадрате 36-80 бесплантно в хорошем качестве Описание: В Северной Атлантике, неподалеку от района, где проводят учения советские корабли Военно-Морского Флота, терпит аварию подводная ... 10 10 5
Info! Золотая раздача, скачанное не засчитывается.
Торрент: Зарегистрирован [2016-10-02 16:08] · скачан: 47 раз
Статус: √ проверено
Размер: 1.47 GB
Как cкачать? Как скачать Случай в квадрате 36-80 через торрент | UTorrent

% Раздел Тема Автор DL S | L
Кино СССР [ 1.09 GB ] Случай в квадрате 36-80 | | DVDRip Drue Скачать
1 | 0

28-11-2019 20:33  


Отключить вcю реклaмy на сайте, в т.ч. и в плеере онлайн просмотра!

02-10-2016 16:21 Случай в квадрате 36-80 Скачать торрент  

дааа...вот это были фииильмы...



02-10-2016 16:27 Случай в квадрате 36-80 Скачать торрент  

Фильм достойный внимания! Отличные актеры. Классика отечественного кино.



    Дорогой пользователь! Огромная просьба, поблагодарите релизера, оцените раздачу и оставьте свои комментарий, если Вы скачали Случай в квадрате 36-80 через торрент бесплатно!!
    Комментировать посты могут только пользователи прошедшие не сложную регистрацию
    Показать сообщения:    


    Случай в квадрате 36-80 через торрент
    Скачать бесплатно Случай в квадрате 36-80
    Случай в квадрате 36-80 скачать торрент
    Случай в квадрате 36-80 смотреть онлайн
    Cкачать фильм Случай в квадрате 36-80 бесплатно
    Случай в квадрате 36-80 скачать торрент в хорошем качестве
    Случай в квадрате 36-80 смотреть онлайн бесплатно в хорошем качестве
    Вы не можете начинать темы
    Вы не можете отвечать на сообщения
    Вы не можете редактировать свои сообщения
    Вы не можете удалять свои сообщения
    Вы не можете голосовать в опросах
    Вы не можете прикреплять файлы к сообщениям
    Вы можете скачивать файлы