Доктор Стрэндж

Лицензия

Добыча

MVO

Дом дракона

1 сезон

Тор

Лицензия

Мэверик

Лицензия

Там, где раки поют

MVO

Властелин колец

1 сезон

Ultimate

pack

Рекомендуем

30

Repack

ВАЖНО

ВАЖНО

Ghostwire

RePack

jed

RePack

nioh2

RePack

RDR2

RePack

NEED FOR SPEED™ PAYBACK

RePack

скачать торрент

Кинопоиск HD

Острые козырьки 6 сезон

6 сезон

FAR CRY 6

RePack

скачать торрент

Лицензия

скачать торрент

MVO

1

1 сезон

скачать торрент

1 сезон

скачать торрент

Лицензия

  

Сицилианская защита (Игорь Усов ) [1980, криминал, DVDRip-AVC]

Сицилианская защита через торрент piratbit.org

Размер: 1.03 GB | Добавлен: 5 лет 11 мес. назад | Торрент скачан:49 раз
Смотреть онлайн Сицилианская защита | Скачать   

03-10-2016 14:55 Сицилианская защита Скачать торрент  

Сицилианская защита

Год выпуска: 1980
Страна: СССР
Жанр: криминал
Продолжительность: 01:26:30
Перевод: Не требуется [Русский]
Режиссер: Игорь Усов
В ролях: Николай Волков мл. (Виктор Иванович Стрельцов), Александр Абдулов (Евгений Борисович Волков), Надежда Павлова (Зина Лебедева), Александр Самойлов (Андрей Николаевич Панов), Татьяна Канаева (Галя Панова), Владлен Давыдов (Андрей Николаевич Панкратов), Артем Иноземцев (Вячеслав Витальевич Ступин), Юрий Башков (Рязанов), Александр Пашутин (Звягинцев), Валерий Кузин (Юрий Сергеевич Красиков), Татьяна Иванова (Людмила Васильевна Снегина), Ирина Губанова (Янина Станиславовна Гронская)
Описание:
В автофургоне «Кондитерские изделия» работниками милиции обнаружена уникальная люстра XVIII века, которую преступники намеревались переправить за границу. До самой развязки сюжета главный преступник остается неизвестен. Однако ясна его тактика, основанная на приеме «сицилианской защиты» - обороны путем нападения...

Качество: DVDRip-AVC
Формат: MKV
Видео: AVC, 720@785x368 (2.133), 1485 kbps, 25 fps, 0,224 bpp
Аудио: русский / AC3 / 2.0 / 48 kHz / 192 kbps /

General
Unique ID Сицилианская защита.1980.mkv
Format : Matroska
Format version : Version 2
File size : 1.03 GiB
Duration : 1 h 26 min
Overall bit rate : 1 711 kb/s
Encoded date : UTC 2016-05-29 18:52:13
Writing application : mkvmerge v5.8.0 ('No Sleep / Pillow') built on Sep 2 2012 15:37:04
Writing library : libebml v1.2.3 + libmatroska v1.3.0
Comment : DVDRip-AVC
Encoded by : george$t®
Originally released : May 29th 2016

Video
ID : 1
Format : AVC
Format/Info : Advanced Video Codec
Format profile : High@L4.1
Format settings, CABAC : Yes
Format settings, ReFrames : 16 frames
Codec ID : V_MPEG4/ISO/AVC
Duration : 1 h 26 min
Bit rate : 1 485 kb/s
Width : 720 pixels
Height : 368 pixels
Display aspect ratio : 2.133
Original display aspect ratio : 2.134
Frame rate mode : Constant
Frame rate : 25.000 FPS
Color space : YUV
Chroma subsampling : 4:2:0
Bit depth : 8 bits
Scan type : Progressive
Bits/(Pixel*Frame) : 0.224
Stream size : 919 MiB (87%)
Title : Сицилианская защита.1980
Writing library : x264 core 148 r2692kMod 64f4e24
Encoding settings : cabac=1 / ref=16 / deblock=1:-2:-2 / analyse=0x3:0x133 / me=umh / subme=11 / psy=1 / fade_compensate=0.00 / psy_rd=1.02:0.15 / mixed_ref=1 / me_range=32 / chroma_me=1 / trellis=2 / 8x8dct=1 / cqm=0 / deadzone=21,11 / fast_pskip=1 / chroma_qp_offset=-3 / threads=11 / lookahead_threads=2 / sliced_threads=0 / nr=0 / decimate=0 / interlaced=0 / bluray_compat=0 / constrained_intra=0 / fgo=0 / bframes=10 / b_pyramid=2 / b_adapt=2 / b_bias=0 / direct=3 / weightb=1 / open_gop=0 / weightp=2 / keyint=250 / keyint_min=25 / scenecut=40 / intra_refresh=0 / rc_lookahead=40 / rc=crf / mbtree=0 / crf=16.4000 / qcomp=0.65 / qpmin=0 / qpmax=69 / qpstep=4 / vbv_maxrate=50000 / vbv_bufsize=62500 / crf_max=0.0 / nal_hrd=none / filler=0 / ip_ratio=1.40 / pb_ratio=1.25 / aq=2:0.50
Language : Russian
Default : Yes
Forced : No
Color range : Limited
Color primaries : BT.601 PAL
Transfer characteristics : BT.470 System B, BT.470 System G
Matrix coefficients : BT.601

Audio
ID : 2
Format : AC-3
Format/Info : Audio Coding 3
Mode extension : CM (complete main)
Format settings, Endianness : Big
Codec ID : A_AC3
Duration : 1 h 26 min
Bit rate mode : Constant
Bit rate : 192 kb/s
Channel(s) : 2 channels
Channel positions : Front: L R
Sampling rate : 48.0 kHz
Frame rate : 31.250 FPS (1536 spf)
Compression mode : Lossy
Stream size : 119 MiB (11%)
Title : Оригинал: AC-3; 16 bit 48 Khz; 2.0ch 192 Kbps; CBR
Language : Russian
Default : Yes
Forced : No
Скриншоты:



Скачать Сицилианская защита через торрент http://i4-imageban-ru.translate.goog/out/2016/10/03/93a077595583dcba50911bed861d6ddf.jpg Скачать, смотреть онлайн Сицилианская защита бесплантно в хорошем качестве Описание: В автофургоне «Кондитерские изделия» работниками милиции обнаружена уникальная люстра XVIII века, которую преступники ... 10 10 1
Торрент: Зарегистрирован [2016-10-03 14:55] · скачан: 49 раз
Статус: √ проверено
Размер: 1.03 GB
Как cкачать? Как скачать Сицилианская защита через торрент | UTorrent

28-11-2019 20:33  

Отключить вcю реклaмy на сайте

    Дорогой пользователь! Огромная просьба, поблагодарите релизера, оцените раздачу и оставьте свои комментарий, если Вы скачали Сицилианская защита через торрент бесплатно!!
    Комментировать посты могут только пользователи прошедшие не сложную регистрацию
    Показать сообщения:    


    Сицилианская защита через торрент
    Скачать бесплатно Сицилианская защита
    Сицилианская защита скачать торрент
    Сицилианская защита смотреть онлайн
    Cкачать фильм Сицилианская защита бесплатно
    Сицилианская защита скачать торрент в хорошем качестве
    Сицилианская защита смотреть онлайн бесплатно в хорошем качестве
    Вы не можете начинать темы
    Вы не можете отвечать на сообщения
    Вы не можете редактировать свои сообщения
    Вы не можете удалять свои сообщения
    Вы не можете голосовать в опросах
    Вы не можете прикреплять файлы к сообщениям
    Вы можете скачивать файлы