Доктор Стрэндж

Лицензия

Добыча

MVO

Дом дракона

1 сезон

Тор

Лицензия

Мэверик

Лицензия

Там, где раки поют

MVO

Властелин колец

1 сезон

Ultimate

pack

Рекомендуем

30

Repack

ВАЖНО

ВАЖНО

Ghostwire

RePack

jed

RePack

nioh2

RePack

RDR2

RePack

NEED FOR SPEED™ PAYBACK

RePack

скачать торрент

Кинопоиск HD

Острые козырьки 6 сезон

6 сезон

FAR CRY 6

RePack

скачать торрент

Лицензия

скачать торрент

MVO

1

1 сезон

скачать торрент

1 сезон

скачать торрент

Лицензия

  

Сумка инкассатора (Август Балтрушайтис ) [1977, детектив, SATRip-AVC]

Сумка инкассатора через торрент piratbit.org

Размер: 1.1 GB | Добавлен: 6 лет назад | Торрент скачан:7 раз
Смотреть онлайн | Скачать   

03-10-2016 21:38 Сумка инкассатора Скачать торрент  

Сумка инкассатора

Год выпуска: 1977
Страна: СССР
Жанр: детектив
Продолжительность: 01:27:15
Перевод: Не требуется [Русский]
Режиссер: Август Балтрушайтис
В ролях: Донатас Банионис (Алексей Туляков), Георгий Бурков (Александр Санин), Елена Наумкина (Маргарита Устинова), Витаутас Томкус (Юрий Борисов), Наталья Фатеева (Ксения Николаевна), Анатолий Солоницын (Иван Тимофеевич), Михаил Светин (Чеботарёв), Игорь Эрельт (Пешехонов), Гега Кобахидзе (Норакидзе), М. Сизов (эксперт), Владимир Сидоров, Геннадий Вернов (капитан милиции)
Описание:
Недалеко от аэропорта найдена сгоревшая машина с двумя инкассаторами, перевозившая выручку из аэропорта, но сумки с деньгами нет. За дело берутся два опытных следователя: Санин и Туляков, а в помощь им дают молодую девушку - практикантку.
Выяснилось, что один из инкассаторов недавно покупал авиабилет в Тбилиси по фальшивому паспорту на другую фамилию. Кроме того, в машине был применен нервно-паралитический газ…

Качество: SATRip-AVC
Формат: MKV
Видео: AVC, 700@746x364 (2.049), 1582 kbps, 25 fps, 0,248 bpp
Аудио: русский / AC3 / 2.0 / 48 kHz / 192 kbps /

General
Unique ID : Сумка инкассатора.1977.mkv
Format : Matroska
Format version : Version 2
File size : 1.10 GiB
Duration : 1 h 27 min
Overall bit rate : 1 811 kb/s
Encoded date : UTC 2016-01-13 09:40:52
Writing application : mkvmerge v5.8.0 ('No Sleep / Pillow') built on Sep 2 2012 15:37:04
Writing library : libebml v1.2.3 + libmatroska v1.3.0
Comment : SATRip-AVC
Encoded by : george$t®
Originally released : January 11th 2016

Video
ID : 1
Format : AVC
Format/Info : Advanced Video Codec
Format profile : High@L4.1
Format settings, CABAC : Yes
Format settings, ReFrames : 16 frames
Codec ID : V_MPEG4/ISO/AVC
Duration : 1 h 27 min
Bit rate : 1 583 kb/s
Width : 700 pixels
Height : 364 pixels
Display aspect ratio : 2.049
Original display aspect ratio : 2.051
Frame rate mode : Constant
Frame rate : 25.000 FPS
Color space : YUV
Chroma subsampling : 4:2:0
Bit depth : 8 bits
Scan type : Progressive
Bits/(Pixel*Frame) : 0.248
Stream size : 988 MiB (87%)
Title : Сумка инкассатора.1977
Writing library : x264 core 148 r2638kMod 7599210
Encoding settings : cabac=1 / ref=16 / deblock=1:-2:-2 / analyse=0x3:0x133 / me=umh / subme=11 / psy=1 / fade_compensate=0.00 / psy_rd=0.95:0.15 / mixed_ref=1 / me_range=32 / chroma_me=1 / trellis=2 / 8x8dct=1 / cqm=0 / deadzone=21,11 / fast_pskip=1 / chroma_qp_offset=-3 / threads=11 / lookahead_threads=1 / sliced_threads=0 / nr=0 / decimate=1 / interlaced=0 / bluray_compat=0 / constrained_intra=0 / fgo=0 / bframes=9 / b_pyramid=2 / b_adapt=2 / b_bias=0 / direct=1 / weightb=1 / open_gop=0 / weightp=2 / keyint=250 / keyint_min=25 / scenecut=40 / intra_refresh=0 / rc_lookahead=40 / rc=crf / mbtree=0 / crf=15.8000 / qcomp=0.65 / qpmin=0 / qpmax=69 / qpstep=4 / vbv_maxrate=50000 / vbv_bufsize=62500 / crf_max=0.0 / nal_hrd=none / filler=0 / ip_ratio=1.40 / pb_ratio=1.20 / aq=2:0.40
Language : Russian
Default : Yes
Forced : No
Color range : Limited
Color primaries : BT.601 PAL
Transfer characteristics : BT.470 System B, BT.470 System G
Matrix coefficients : BT.601

Audio
ID : 2
Format : AC-3
Format/Info : Audio Coding 3
Mode extension : CM (complete main)
Format settings, Endianness : Big
Codec ID : A_AC3
Duration : 1 h 27 min
Bit rate mode : Constant
Bit rate : 192 kb/s
Channel(s) : 2 channels
Channel positions : Front: L R
Sampling rate : 48.0 kHz
Frame rate : 31.250 FPS (1536 spf)
Compression mode : Lossy
Stream size : 120 MiB (11%)
Title : AC-3; 16 bit 48 Khz; 2.0ch 192 Kbps; CBR
Language : Russian
Default : Yes
Forced : No
Скриншоты:



Скачать Сумка инкассатора через торрент http://i3-imageban-ru.translate.goog/out/2016/10/04/12c612a1cc92c20866d3919e81cb2867.jpg Скачать, смотреть онлайн Сумка инкассатора бесплантно в хорошем качестве Описание: Недалеко от аэропорта найдена сгоревшая машина с двумя инкассаторами, перевозившая выручку из аэропорта, но сумки с деньгами нет. ... 10 10 4
Info! Золотая раздача, скачанное не засчитывается.
Торрент: Зарегистрирован [2016-10-03 21:38] · скачан: 7 раз
Статус: √ проверено
Размер: 1.1 GB
Как cкачать? Как скачать Сумка инкассатора через торрент | UTorrent

28-11-2019 20:33  


Отключить вcю реклaмy на сайте, в т.ч. и в плеере онлайн просмотра!

    Дорогой пользователь! Огромная просьба, поблагодарите релизера, оцените раздачу и оставьте свои комментарий, если Вы скачали Сумка инкассатора через торрент бесплатно!!
    Комментировать посты могут только пользователи прошедшие не сложную регистрацию
    Показать сообщения:    


    Сумка инкассатора через торрент
    Скачать бесплатно Сумка инкассатора
    Сумка инкассатора скачать торрент
    Сумка инкассатора смотреть онлайн
    Cкачать фильм Сумка инкассатора бесплатно
    Сумка инкассатора скачать торрент в хорошем качестве
    Сумка инкассатора смотреть онлайн бесплатно в хорошем качестве
    Вы не можете начинать темы
    Вы не можете отвечать на сообщения
    Вы не можете редактировать свои сообщения
    Вы не можете удалять свои сообщения
    Вы не можете голосовать в опросах
    Вы не можете прикреплять файлы к сообщениям
    Вы можете скачивать файлы