Доктор Стрэндж

Лицензия

Добыча

MVO

Дом дракона

1 сезон

Тор

Лицензия

Мэверик

Лицензия

Там, где раки поют

MVO

Властелин колец

1 сезон

Ultimate

pack

Рекомендуем

30

Repack

ВАЖНО

ВАЖНО

Ghostwire

RePack

jed

RePack

nioh2

RePack

RDR2

RePack

NEED FOR SPEED™ PAYBACK

RePack

скачать торрент

Кинопоиск HD

Острые козырьки 6 сезон

6 сезон

FAR CRY 6

RePack

скачать торрент

Лицензия

скачать торрент

MVO

1

1 сезон

скачать торрент

1 сезон

скачать торрент

Лицензия

  

Дядюшкин сон (Константин Воинов ) [1966, драма, DVDRip-AVC]

Дядюшкин сон через торрент piratbit.org

Размер: 1.94 GB | Добавлен: 5 лет 11 мес. назад | Торрент скачан:4 раза
Смотреть онлайн Дядюшкин сон | Скачать   

04-10-2016 06:45 Дядюшкин сон Скачать торрент  

Дядюшкин сон

Год выпуска: 1966
Страна: СССР
Жанр: драма

Продолжительность: 01:20:58
Перевод: Не требуется [Русский]
Режиссер: Константин Воинов
В ролях: Сергей Мартинсон (Князь), Лидия Смирнова (Москалёва), Жанна Прохоренко (Зинаида Афанасьевна), Николай Рыбников (Мозгляков), Николай Крючков (Москалев), Нина Агапова (Фелисата Михайловна), Григорий Белов (лакей Москалевой), Александра Данилова, Лидия Драновская, Светлана Коновалова, Алла Ларионова (Паскудина), Клара Лучко (Антипова)
Описание:
В маленьком провинциальном городке происходит важное событие, приезжает престарелый богатый князь. Местная «львица» Марья Александровна Москалева решает женить его на своей дочери Зиночке. Но «благородное» мордасовское общество отнюдь не склонно добровольно сдать позиции: ведь в голове у каждой маменьки, у которой есть дочь на выданье, мечта заполучить в зятья богача.

Качество: DVDRip-AVC
Формат: MKV
Видео: AVC, 720x360 (2.000), 2976 kbps, 25 fps, 0,459 bpp
Аудио: AC3 / 2.0 / 48 kHz / 384 kbps /

General
Unique ID Дядюшкин сон.1966.mkv
Format : Matroska
Format version : Version 2
File size : 1.94 GiB
Duration : 1 h 20 min
Overall bit rate : 3 429 kb/s
Encoded date : UTC 2016-09-28 11:28:40
Writing application : mkvmerge v6.1.0 ('Old Devil') built on Mar 4 2013 09:10:42
Writing library : libebml v1.3.0 + libmatroska v1.4.0

Video
ID : 1
Format : AVC
Format/Info : Advanced Video Codec
Format profile : High@L4.1
Format settings, CABAC : Yes
Format settings, ReFrames : 10 frames
Codec ID : V_MPEG4/ISO/AVC
Duration : 1 h 20 min
Bit rate : 2 977 kb/s
Width : 720 pixels
Height : 360 pixels
Display aspect ratio : 2.000
Frame rate mode : Constant
Frame rate : 25.000 FPS
Color space : YUV
Chroma subsampling : 4:2:0
Bit depth : 8 bits
Scan type : Progressive
Bits/(Pixel*Frame) : 0.459
Stream size : 1.68 GiB (87%)
Writing library : x264 core 130 r2273 b3065e6
Encoding settings : cabac=1 / ref=10 / deblock=1:-3:-3 / analyse=0x3:0x133 / me=umh / subme=11 / psy=1 / psy_rd=1.00:0.15 / mixed_ref=1 / me_range=32 / chroma_me=1 / trellis=2 / 8x8dct=1 / cqm=0 / deadzone=21,11 / fast_pskip=0 / chroma_qp_offset=-3 / threads=12 / lookahead_threads=2 / sliced_threads=0 / nr=0 / decimate=0 / interlaced=0 / bluray_compat=0 / constrained_intra=0 / bframes=8 / b_pyramid=2 / b_adapt=2 / b_bias=0 / direct=1 / weightb=1 / open_gop=0 / weightp=2 / keyint=240 / keyint_min=23 / scenecut=40 / intra_refresh=0 / rc=crf / mbtree=0 / crf=17.0 / qcomp=0.60 / qpmin=0 / qpmax=69 / qpstep=4 / ip_ratio=1.40 / pb_ratio=1.30 / aq=1:0.90
Default : Yes
Forced : No

Audio
ID : 2
Format : AC-3
Format/Info : Audio Coding 3
Mode extension : CM (complete main)
Format settings, Endianness : Big
Codec ID : A_AC3
Duration : 1 h 20 min
Bit rate mode : Constant
Bit rate : 384 kb/s
Channel(s) : 2 channels
Channel positions : Front: L R
Sampling rate : 48.0 kHz
Frame rate : 31.250 FPS (1536 spf)
Compression mode : Lossy
Stream size : 222 MiB (11%)
Default : Yes
Forced : No
Скриншоты:



Скачать Дядюшкин сон через торрент http://i6-imageban-ru.translate.goog/out/2016/10/04/60ef46b01da744840be261eebc69f7ba.jpg Скачать, смотреть онлайн Дядюшкин сон бесплантно в хорошем качестве Описание: В маленьком провинциальном городке происходит важное событие, приезжает престарелый богатый князь. Местная «львица» Марья ... 10 10 2
Info! Золотая раздача, скачанное не засчитывается.
Торрент: Зарегистрирован [2016-10-04 06:45] · скачан: 4 раз
Статус: √ проверено
Размер: 1.94 GB
Как cкачать? Как скачать Дядюшкин сон через торрент | UTorrent

28-11-2019 20:33  

Отключить вcю реклaмy на сайте

    Дорогой пользователь! Огромная просьба, поблагодарите релизера, оцените раздачу и оставьте свои комментарий, если Вы скачали Дядюшкин сон через торрент бесплатно!!
    Комментировать посты могут только пользователи прошедшие не сложную регистрацию
    Показать сообщения:    


    Дядюшкин сон через торрент
    Скачать бесплатно Дядюшкин сон
    Дядюшкин сон скачать торрент
    Дядюшкин сон смотреть онлайн
    Cкачать фильм Дядюшкин сон бесплатно
    Дядюшкин сон скачать торрент в хорошем качестве
    Дядюшкин сон смотреть онлайн бесплатно в хорошем качестве
    Вы не можете начинать темы
    Вы не можете отвечать на сообщения
    Вы не можете редактировать свои сообщения
    Вы не можете удалять свои сообщения
    Вы не можете голосовать в опросах
    Вы не можете прикреплять файлы к сообщениям
    Вы можете скачивать файлы