Доктор Стрэндж

Лицензия

Добыча

MVO

Дом дракона

1 сезон

Тор

Лицензия

Мэверик

Лицензия

Там, где раки поют

MVO

Властелин колец

1 сезон

Ultimate

pack

Рекомендуем

30

Repack

ВАЖНО

ВАЖНО

Ghostwire

RePack

jed

RePack

nioh2

RePack

RDR2

RePack

NEED FOR SPEED™ PAYBACK

RePack

скачать торрент

Кинопоиск HD

Острые козырьки 6 сезон

6 сезон

FAR CRY 6

RePack

скачать торрент

Лицензия

скачать торрент

MVO

1

1 сезон

скачать торрент

1 сезон

скачать торрент

Лицензия

  

Она Вас любит (Семен Деревянский, Рафаил Суслович) [1956, СССР, мелодрама, комедия, DVDRip от AVP Studio]

Она Вас любит через торрент piratbit.org

Размер: 743 MB | Добавлен: 6 лет назад | Торрент скачан:16 раз
Смотреть онлайн | Скачать   

04-10-2016 08:00 Она Вас любит Скачать торрент  

Она Вас любит
Страна: СССР
Производство: Ленфильм

Жанр: мелодрама, комедия
Год выпуска: 1956
Продолжительность: 01:19:58

Перевод: Не требуется
Cубтитры: нет
Оригинальная аудиодорожка: русский

Режиссер: Семен Деревянский, Рафаил Суслович

В ролях:
Георгий Вицин, Инна Кмит, Лидия Сухаревская, Тамара Носова, Александр Ширвиндт, Игорь Дмитриев, Лидия Атманаки, Константин Сорокин, Рэм Лебедев...
Полный список актёров

Описание:
Скромный и застенчивый работник зоопарка по фамилии Канарейкин влюбляется в девушку с обложки журнала – победительницу легкоатлетических соревнований. Он пишет ей письмо, но его приятель-фотограф, случайно вместо фотографии Канарейкина вкладывает в конверт фото другого молодого человека - певца, дипломанта конкурса вокалистов, красавца, любимца женщин...

Источник: DVD5 R5
Качество видео: DVDRip
Формат видео: AVI

Видео: 640x480 (4:3), 25 fps, XviD ~ 1161 kbps avg, 0.151 bit/pixel
Аудио: 48 kHz, MP3 2.0, 128 kbps

Раздача от:
Общее
Полное имя : Ona.vas.lyubit.1956.DVDRip-745_[New-team]_by_AVP_Studio.avi
Формат : AVI
Формат/Информация : Audio Video Interleave
Размер файла : 743 Мбайт
Продолжительность : 1 ч. 19 м.
Общий поток : 1299 Кбит/сек
Программа кодирования : VirtualDubMod 1.5.10.3 | www.virtualdub-fr.org || (build 2550/release)
Библиотека кодирования : VirtualDubMod build 2550/release

Видео
Идентификатор : 0
Формат : MPEG-4 Visual
Профиль формата : Advanced Simple@L5
Параметр BVOP формата : 1
Параметр QPel формата : Нет
Параметр GMC формата : Без точки перехода
Параметр матрицы формата : Выборочная
Идентификатор кодека : XVID
Идентификатор кодека/Подсказка : XviD
Продолжительность : 1 ч. 19 м.
Битрейт : 1161 Кбит/сек
Ширина : 640 пикселей
Высота : 480 пикселей
Соотношение сторон : 4:3
Частота кадров : 25,000 кадров/сек
Цветовое пространство : YUV
Субдискретизация насыщенности : 4:2:0
Битовая глубина : 8 бит
Тип развёртки : Прогрессивная
Метод сжатия : С потерями
Бит/(Пиксели*Кадры) : 0.151
Размер потока : 664 Мбайт (89%)
Библиотека кодирования : XviD 1.2.1 (UTC 2008-12-04)

Аудио
Идентификатор : 1
Формат : MPEG Audio
Версия формата : Version 1
Профиль формата : Layer 3
Идентификатор кодека : 55
Идентификатор кодека/Подсказка : MP3
Продолжительность : 1 ч. 19 м.
Вид битрейта : Постоянный
Битрейт : 128 Кбит/сек
Каналы : 2 канала
Частота : 48,0 КГц
Метод сжатия : С потерями
Размер потока : 73,2 Мбайт (10%)
Выравнивание : Соединение по промежуткам
Продолжительность промежутка : 40 мс. (1,00 видеокадр)
Время предзагрузки промежутка : 504 мс.
Библиотека кодирования : LAME3.99r
Настройки программы : -m s -V 4 -q 2 -lowpass 17 -b 128



Скачать Она Вас любит через торрент http://s03.radikal.ru/i176/1610/ef/38abc7a1ec13.png Скачать, смотреть онлайн Она Вас любит бесплантно в хорошем качестве Описание:Скромный и застенчивый работник зоопарка по фамилии Канарейкин влюбляется в девушку с обложки журнала – победительницу ... 10 10 1
Info! Золотая раздача, скачанное не засчитывается.
Торрент: Зарегистрирован [2016-10-04 08:00] · скачан: 16 раз
Статус: √ проверено
Размер: 743 MB
Как cкачать? Как скачать Она Вас любит через торрент | UTorrent

% Раздел Тема Автор DL S | L
Кино СССР [ 1.09 GB ] Она Вас любит | | DVDRip-AVC от AVP Studio AVP Studio Скачать
1 | 0
Кино СССР [ 1.09 GB ] Она Вас любит | | DVDRip от AVP Studio AVP Studio Скачать
1 | 0

28-11-2019 20:33  


Отключить вcю реклaмy на сайте, в т.ч. и в плеере онлайн просмотра!

    Дорогой пользователь! Огромная просьба, поблагодарите релизера, оцените раздачу и оставьте свои комментарий, если Вы скачали Она Вас любит через торрент бесплатно!!
    Комментировать посты могут только пользователи прошедшие не сложную регистрацию
    Показать сообщения:    


    Она Вас любит через торрент
    Скачать бесплатно Она Вас любит
    Она Вас любит скачать торрент
    Она Вас любит смотреть онлайн
    Cкачать фильм Она Вас любит бесплатно
    Она Вас любит скачать торрент в хорошем качестве
    Она Вас любит смотреть онлайн бесплатно в хорошем качестве
    Вы не можете начинать темы
    Вы не можете отвечать на сообщения
    Вы не можете редактировать свои сообщения
    Вы не можете удалять свои сообщения
    Вы не можете голосовать в опросах
    Вы не можете прикреплять файлы к сообщениям
    Вы можете скачивать файлы