Доктор Стрэндж

Лицензия

Добыча

MVO

Дом дракона

1 сезон

Тор

Лицензия

Мэверик

Лицензия

Там, где раки поют

MVO

Властелин колец

1 сезон

Ultimate

pack

Рекомендуем

30

Repack

ВАЖНО

ВАЖНО

Ghostwire

RePack

jed

RePack

nioh2

RePack

RDR2

RePack

NEED FOR SPEED™ PAYBACK

RePack

скачать торрент

Кинопоиск HD

Острые козырьки 6 сезон

6 сезон

FAR CRY 6

RePack

скачать торрент

Лицензия

скачать торрент

MVO

1

1 сезон

скачать торрент

1 сезон

скачать торрент

Лицензия

  

На войне как на войне (Виктор Трегубович ) [1969, военный, драма, DVDRip-AVC]

На войне как на войне через торрент piratbit.org

Размер: 1.43 GB | Добавлен: 5 лет 11 мес. назад | Торрент скачан:26 раз
Смотреть онлайн На войне как на войне | Скачать   

04-10-2016 11:37 На войне как на войне Скачать торрент  

На войне как на войне

Год выпуска: 1969
Страна: СССР
Жанр: военный, драма

Продолжительность: 01:24:59
Перевод: Не требуется [Русский]
Режиссер: Виктор Трегубович
В ролях: Михаил Кононов (мл. лейтенант Малешкин), Олег Борисов (сержант Михаил Домешек), Федор Одиноков (ефрейтор Осип Бянкин), Виктор Павлов (водитель самоходки Щербак), Михаил Глузский (полковник Дей), Валентин Зубков (полковник Басов), Юрий Дубровин (Громыхало), Борис Табаровский (комбат Беззубцев), Герман Колушкин (Пашка Теленков), Борис Аракелов (Чегиничка), Петр Горин (капитан Сергачёв), Петр Любешкин (Тимофей Васильевич Овсянников)
Описание:
Младшего лейтенанта, только закончившего военное училище, назначили командиром «самоходки» с экипажем опытных и бывалых бойцов. Об их жизни, боевой и будничной рассказывает этот фильм.

Качество: DVDRip-AVC
Формат: MKV
Видео: AVC, 696x352@760x352 (2.2:1), 2162 kbps, 25 fps, 0,353 bpp
Аудио: русский / AC3 / 2.0 / 48 kHz / 192 kbps /

General
Unique ID На войне как на войне.mkv
Format : Matroska
Format version : Version 2
File size : 1.43 GiB
Duration : 1 h 24 min
Overall bit rate mode : Variable
Overall bit rate : 2 402 kb/s
Encoded date : UTC 2014-12-08 09:00:36
Writing application : mkvmerge v6.2.0 ('Promised Land') built on Apr 28 2013 12:22:01
Writing library : libebml v1.3.0 + libmatroska v1.4.0

Video
ID : 1
Format : AVC
Format/Info : Advanced Video Codec
Format profile : High@L4
Format settings, CABAC : Yes
Format settings, ReFrames : 2 frames
Format settings, GOP : M=2, N=13
Muxing mode : Container profile=Main@3.0
Codec ID : V_MPEG4/ISO/AVC
Duration : 1 h 24 min
Bit rate mode : Variable
Bit rate : 2 162 kb/s
Maximum bit rate : 16.0 Mb/s
Width : 696 pixels
Original width : 704 pixels
Height : 352 pixels
Display aspect ratio : 2.2:1
Original display aspect ratio : 2.2:1
Frame rate mode : Constant
Frame rate : 25.000 FPS
Color space : YUV
Chroma subsampling : 4:2:0
Bit depth : 8 bits
Scan type : Progressive
Bits/(Pixel*Frame) : 0.353
Stream size : 1.28 GiB (90%)
Title : На войне как на войне (Topmost)
Language : Russian
Default : Yes
Forced : No

Audio
ID : 2
Format : AC-3
Format/Info : Audio Coding 3
Mode extension : CM (complete main)
Format settings, Endianness : Big
Codec ID : A_AC3
Duration : 1 h 24 min
Bit rate mode : Constant
Bit rate : 192 kb/s
Channel(s) : 2 channels
Channel positions : Front: L R
Sampling rate : 48.0 kHz
Frame rate : 31.250 FPS (1536 spf)
Compression mode : Lossy
Stream size : 117 MiB (8%)
Title : 48 kHz, AC3, 2/0 (L,R) ch, 192.00 kbps
Language : Russian
Default : Yes
Forced : No
Скриншоты:



Скачать На войне как на войне через торрент http://i5-imageban-ru.translate.goog/out/2016/10/04/801b292bc41fababf46383db6bb92aca.jpg Скачать, смотреть онлайн На войне как на войне бесплантно в хорошем качестве Описание: Младшего лейтенанта, только закончившего военное училище, назначили командиром «самоходки» с экипажем опытных и бывалых бойцов. ... 10 10 3
Info! Золотая раздача, скачанное не засчитывается.
Торрент: Зарегистрирован [2016-10-04 11:37] · скачан: 26 раз
Статус: √ проверено
Размер: 1.43 GB
Как cкачать? Как скачать На войне как на войне через торрент | UTorrent

% Раздел Тема Автор DL S | L
Кино СССР [ 1.47 GB ] На войне как на войне | | DVDRip Notturno Скачать
1 | 0

28-11-2019 20:33  

Отключить вcю реклaмy на сайте

    Дорогой пользователь! Огромная просьба, поблагодарите релизера, оцените раздачу и оставьте свои комментарий, если Вы скачали На войне как на войне через торрент бесплатно!!
    Комментировать посты могут только пользователи прошедшие не сложную регистрацию
    Показать сообщения:    


    На войне как на войне через торрент
    Скачать бесплатно На войне как на войне
    На войне как на войне скачать торрент
    На войне как на войне смотреть онлайн
    Cкачать фильм На войне как на войне бесплатно
    На войне как на войне скачать торрент в хорошем качестве
    На войне как на войне смотреть онлайн бесплатно в хорошем качестве
    Вы не можете начинать темы
    Вы не можете отвечать на сообщения
    Вы не можете редактировать свои сообщения
    Вы не можете удалять свои сообщения
    Вы не можете голосовать в опросах
    Вы не можете прикреплять файлы к сообщениям
    Вы можете скачивать файлы