Доктор Стрэндж

Лицензия

Добыча

MVO

Дом дракона

1 сезон

Тор

Лицензия

Мэверик

Лицензия

Там, где раки поют

MVO

Властелин колец

1 сезон

Ultimate

pack

Рекомендуем

30

Repack

ВАЖНО

ВАЖНО

Ghostwire

RePack

jed

RePack

nioh2

RePack

RDR2

RePack

NEED FOR SPEED™ PAYBACK

RePack

скачать торрент

Кинопоиск HD

Острые козырьки 6 сезон

6 сезон

FAR CRY 6

RePack

скачать торрент

Лицензия

скачать торрент

MVO

1

1 сезон

скачать торрент

1 сезон

скачать торрент

Лицензия

  

Новые похождения Швейка (Сергей Юткевич ) [1943, комедия, SATRip]

Новые похождения Швейка через торрент piratbit.org

Размер: 1.09 GB | Добавлен: 5 лет 11 мес. назад | Торрент скачан:19 раз
Смотреть онлайн Новые похождения Швейка | Скачать   

04-10-2016 19:37 Новые похождения Швейка Скачать торрент  

Новые похождения Швейка

Год выпуска: 1943
Страна: СССР
Жанр: комедия

Продолжительность: 01:08:07
Перевод: Не требуется [Русский]
Режиссер: Сергей Юткевич
В ролях: Сергей Мартинсон (Гитлер), Нина Никитина (Христина), Фаина Раневская (тётя Адель), Павел Шпрингфельд (Марко), Борис Тенин (Швейк), Павел Суханов (повар), Сергей Филиппов (ефрейтор), Сергей Троицкий (итальянец), Алексей Савостьянов (штурмовщик), Михаил Трояновский (партизан и немецкий офицер, в титрах не указан), Георгий Милляр (немец, в титрах не указан), Александр Михайлов (молодой партизан, в титрах не указан)
Описание:
Йозеф Швейк сбежал из тюрьмы и мобилизовался в армию на Балканы, где действует карательный отряд. Без сомнения и страха он старается помочь партизанам, придумывая хитроумные способы расправы над Гитлером.

Качество: SATRip
Формат: AVI
Видео: XviD, 688x528 (4:3), 2154 kbps, 25 fps, 0,237 bpp
Аудио: MP3 / 2.0 / 48 kHz / 128 kbps /

General
Complete name Новые похождения Швейка (1943) SATRip.avi
Format : AVI
Format/Info : Audio Video Interleave
File size : 1.09 GiB
Duration : 1 h 8 min
Overall bit rate : 2 292 kb/s
Writing library : VirtualDub build 35576/release

Video
ID : 0
Format : MPEG-4 Visual
Format profile : Advanced Simple@L5
Format settings, BVOP : 2
Format settings, QPel : No
Format settings, GMC : No warppoints
Format settings, Matrix : Default (H.263)
Codec ID : XVID
Codec ID/Hint : XviD
Duration : 1 h 8 min
Bit rate : 2 155 kb/s
Width : 688 pixels
Height : 528 pixels
Display aspect ratio : 4:3
Frame rate : 25.000 FPS
Color space : YUV
Chroma subsampling : 4:2:0
Bit depth : 8 bits
Scan type : Progressive
Compression mode : Lossy
Bits/(Pixel*Frame) : 0.237
Stream size : 1.03 GiB (94%)
Writing library : XviD 73

Audio
ID : 1
Format : MPEG Audio
Format version : Version 1
Format profile : Layer 3
Mode : Joint stereo
Mode extension : MS Stereo
Codec ID : 55
Codec ID/Hint : MP3
Duration : 1 h 8 min
Bit rate mode : Constant
Bit rate : 128 kb/s
Channel(s) : 2 channels
Sampling rate : 48.0 kHz
Compression mode : Lossy
Delay relative to video : 100 ms
Stream size : 62.4 MiB (6%)
Alignment : Split accross interleaves
Interleave, duration : 40 ms (1.00 video frame)
Interleave, preload duration : 500 ms
Скриншоты:



Скачать Новые похождения Швейка через торрент http://i2-imageban-ru.translate.goog/out/2016/10/04/e9d98ae78d1642abff031cc7681580c2.jpg Скачать, смотреть онлайн Новые похождения Швейка бесплантно в хорошем качестве Описание: Йозеф Швейк сбежал из тюрьмы и мобилизовался в армию на Балканы, где действует карательный отряд. Без сомнения и страха он ... 10 10 2
Торрент: Зарегистрирован [2016-10-04 19:37] · скачан: 19 раз
Статус: √ проверено
Размер: 1.09 GB
Как cкачать? Как скачать Новые похождения Швейка через торрент | UTorrent

28-11-2019 20:33  

Отключить вcю реклaмy на сайте

    Дорогой пользователь! Огромная просьба, поблагодарите релизера, оцените раздачу и оставьте свои комментарий, если Вы скачали Новые похождения Швейка через торрент бесплатно!!
    Комментировать посты могут только пользователи прошедшие не сложную регистрацию
    Показать сообщения:    


    Новые похождения Швейка через торрент
    Скачать бесплатно Новые похождения Швейка
    Новые похождения Швейка скачать торрент
    Новые похождения Швейка смотреть онлайн
    Cкачать фильм Новые похождения Швейка бесплатно
    Новые похождения Швейка скачать торрент в хорошем качестве
    Новые похождения Швейка смотреть онлайн бесплатно в хорошем качестве
    Вы не можете начинать темы
    Вы не можете отвечать на сообщения
    Вы не можете редактировать свои сообщения
    Вы не можете удалять свои сообщения
    Вы не можете голосовать в опросах
    Вы не можете прикреплять файлы к сообщениям
    Вы можете скачивать файлы