Доктор Стрэндж

Лицензия

Добыча

MVO

Дом дракона

1 сезон

Тор

Лицензия

Мэверик

Лицензия

Там, где раки поют

MVO

Властелин колец

1 сезон

Ultimate

pack

Рекомендуем

30

Repack

ВАЖНО

ВАЖНО

Ghostwire

RePack

jed

RePack

nioh2

RePack

RDR2

RePack

NEED FOR SPEED™ PAYBACK

RePack

скачать торрент

Кинопоиск HD

Острые козырьки 6 сезон

6 сезон

FAR CRY 6

RePack

скачать торрент

Лицензия

скачать торрент

MVO

1

1 сезон

скачать торрент

1 сезон

скачать торрент

Лицензия

  

Разные судьбы (Леонид Луков) [1956, СССР, драма, мелодрама, DVDRip от AVP Studio]

Разные судьбы через торрент piratbit.org

Размер: 745 MB | Добавлен: 5 лет 11 мес. назад | Торрент скачан:12 раз
Смотреть онлайн Разные судьбы | Скачать   

05-10-2016 08:48 Разные судьбы Скачать торрент  

Разные судьбы
Страна: СССР
Производство: к/с им. М.Горького

Жанр: драма, мелодрама
Год выпуска: 1956
Продолжительность: 01:40:21

Перевод: Не требуется
Cубтитры: нет
Оригинальная аудиодорожка: русский

Режиссер: Леонид Луков

В ролях:
Татьяна Пилецкая, Юлиан Панич, Лев Свердлин, Ольга Жизнева, Татьяна Конюхова, Георгий Юматов, Ада Войцик, Владимир Дорофеев, Сергей Блинников, Валентина Ушакова, Константин Сорокин, Всеволод Санаев, Бруно Фрейндлих, Лилия Максимова...
Полный список актёров

Описание:
Популярная мелодрама 50-х годов о выпускниках ленинградской школы.
Эгоистичная и тщеславная Танечка Огнева поступает в металлургический институт и выходит замуж за нелюбимого однокласника, а любящий её Степан уезжает из Ленинграда в Новосибирск работать сталеваром на металлургическом комбинате...

Источник: DVD9 R5
Качество видео: DVDRip
Формат видео: AVI

Видео: 576x432 (4:3), 25 fps, XviD ~ 1622 kbps avg, 0.145 bit/pixel
Аудио: 48 kHz, MP3 2.0, 128 kbps

Раздача от:
Общее
Полное имя : Raznye.sudby.1956.DVDRip-745_[New-team]_by_AVP_Studio.avi
Формат : AVI
Формат/Информация : Audio Video Interleave
Размер файла : 745 Мбайт
Продолжительность : 1 ч. 40 м.
Общий поток : 1037 Кбит/сек
Программа кодирования : VirtualDubMod 1.5.10.3 | www.virtualdub-fr.org || (build 2550/release)
Библиотека кодирования : VirtualDubMod build 2550/release

Видео
Идентификатор : 0
Формат : MPEG-4 Visual
Профиль формата : Advanced Simple@L5
Параметр BVOP формата : 1
Параметр QPel формата : Нет
Параметр GMC формата : Без точки перехода
Параметр матрицы формата : Выборочная
Идентификатор кодека : XVID
Идентификатор кодека/Подсказка : XviD
Продолжительность : 1 ч. 40 м.
Битрейт : 900 Кбит/сек
Ширина : 576 пикселей
Высота : 432 пикселя
Соотношение сторон : 4:3
Частота кадров : 25,000 кадров/сек
Цветовое пространство : YUV
Субдискретизация насыщенности : 4:2:0
Битовая глубина : 8 бит
Тип развёртки : Прогрессивная
Метод сжатия : С потерями
Бит/(Пиксели*Кадры) : 0.145
Размер потока : 646 Мбайт (87%)
Библиотека кодирования : XviD 1.2.1 (UTC 2008-12-04)

Аудио
Идентификатор : 1
Формат : MPEG Audio
Версия формата : Version 1
Профиль формата : Layer 3
Идентификатор кодека : 55
Идентификатор кодека/Подсказка : MP3
Продолжительность : 1 ч. 40 м.
Вид битрейта : Постоянный
Битрейт : 128 Кбит/сек
Каналы : 2 канала
Частота : 48,0 КГц
Метод сжатия : С потерями
Размер потока : 91,9 Мбайт (12%)
Выравнивание : Соединение по промежуткам
Продолжительность промежутка : 40 мс. (1,00 видеокадр)
Время предзагрузки промежутка : 504 мс.
Библиотека кодирования : LAME3.99r
Настройки программы : -m s -V 4 -q 2 -lowpass 17 -b 128



Скачать Разные судьбы через торрент http://s009.radikal.ru/i310/1610/96/9da20a709c90.png Скачать, смотреть онлайн Разные судьбы бесплантно в хорошем качестве Описание:Популярная мелодрама 50-х годов о выпускниках ленинградской школы.Эгоистичная и тщеславная Танечка Огнева поступает в ... 10 10 1
Info! Золотая раздача, скачанное не засчитывается.
Торрент: Зарегистрирован [2016-10-05 08:48] · скачан: 12 раз
Статус: √ проверено
Размер: 745 MB
Как cкачать? Как скачать Разные судьбы через торрент | UTorrent

% Раздел Тема Автор DL S | L
Кино СССР [ 1.46 GB ] Разные судьбы | | DVDRip-AVC от AVP Studio AVP Studio Скачать
1 | 0
Кино СССР [ 1.46 GB ] Разные судьбы | | DVDRip от AVP Studio AVP Studio Скачать
1 | 0

28-11-2019 20:33  

Отключить вcю реклaмy на сайте

    Дорогой пользователь! Огромная просьба, поблагодарите релизера, оцените раздачу и оставьте свои комментарий, если Вы скачали Разные судьбы через торрент бесплатно!!
    Комментировать посты могут только пользователи прошедшие не сложную регистрацию
    Показать сообщения:    


    Разные судьбы через торрент
    Скачать бесплатно Разные судьбы
    Разные судьбы скачать торрент
    Разные судьбы смотреть онлайн
    Cкачать фильм Разные судьбы бесплатно
    Разные судьбы скачать торрент в хорошем качестве
    Разные судьбы смотреть онлайн бесплатно в хорошем качестве
    Вы не можете начинать темы
    Вы не можете отвечать на сообщения
    Вы не можете редактировать свои сообщения
    Вы не можете удалять свои сообщения
    Вы не можете голосовать в опросах
    Вы не можете прикреплять файлы к сообщениям
    Вы можете скачивать файлы