Доктор Стрэндж

Лицензия

Добыча

MVO

Дом дракона

1 сезон

Тор

Лицензия

Мэверик

Лицензия

Там, где раки поют

MVO

Властелин колец

1 сезон

Ultimate

pack

Рекомендуем

30

Repack

ВАЖНО

ВАЖНО

Ghostwire

RePack

jed

RePack

nioh2

RePack

RDR2

RePack

NEED FOR SPEED™ PAYBACK

RePack

скачать торрент

Кинопоиск HD

Острые козырьки 6 сезон

6 сезон

FAR CRY 6

RePack

скачать торрент

Лицензия

скачать торрент

MVO

1

1 сезон

скачать торрент

1 сезон

скачать торрент

Лицензия

  

Месяц август (Вадим Михайлов ) [1971, драма, TVRip]

Месяц август через торрент piratbit.org

Размер: 1.23 GB | Добавлен: 5 лет 11 мес. назад | Торрент скачан:2 раза
Смотреть онлайн Месяц август | Скачать   

07-10-2016 14:27 Месяц август Скачать торрент  

Месяц август

Год выпуска: 1971
Страна: СССР
Жанр: драма
Продолжительность: 01:07:41
Перевод: Не требуется [Русский]
Режиссер: Вадим Михайлов
В ролях: Ия Саввина (Соня), Сергей Шакуров (Алексей Крашенинников), Александр Плотников (Семен Кондратьевич), Вера Кузнецова (Анна Матвеевна), Станислав Чуркин (председатель колхоза), Любовь Соколова (Антонина), Елизавета Никищихина (Лиза), Галя Курдюмова (Галя), Алексей Сироткин (Миша), Александр Блинов, Екатерина Васильева (Тамара), Светлана Карпинская
Описание:
Поездив по стране, Алексей Крашенинников задержался в городе - на работе обещали квартиру. Но пришло письмо о том, что заболели старики. Алексей поехал вместе с семьёй на родину и после похорон отца решил не возвращаться в город...

Качество: TVRip
Формат: AVI
Видео: XviD, 720x384 (1.85:1), 2202 kbps, 25 fps, 0,319 bpp
Аудио: AC3 / 2.0 / 48 kHz / 384 kbps /

General
Complete name Месяц август (1971) TVRip.avi
Format : AVI
Format/Info : Audio Video Interleave
File size : 1.23 GiB
Duration : 1 h 7 min
Overall bit rate : 2 596 kb/s
Writing library : VirtualDub build 35491/release

Video
ID : 0
Format : MPEG-4 Visual
Format profile : Advanced Simple@L5
Format settings, BVOP : 2
Format settings, QPel : No
Format settings, GMC : No warppoints
Format settings, Matrix : Default (H.263)
Muxing mode : Packed bitstream
Codec ID : XVID
Codec ID/Hint : XviD
Duration : 1 h 7 min
Bit rate : 2 203 kb/s
Width : 720 pixels
Height : 384 pixels
Display aspect ratio : 1.85:1
Frame rate : 25.000 FPS
Color space : YUV
Chroma subsampling : 4:2:0
Bit depth : 8 bits
Scan type : Progressive
Compression mode : Lossy
Bits/(Pixel*Frame) : 0.319
Stream size : 1.04 GiB (85%)
Writing library : XviD 65

Audio
ID : 1
Format : AC-3
Format/Info : Audio Coding 3
Mode extension : CM (complete main)
Format settings, Endianness : Big
Codec ID : 2000
Duration : 1 h 7 min
Bit rate mode : Constant
Bit rate : 384 kb/s
Channel(s) : 2 channels
Channel positions : Front: L R
Sampling rate : 48.0 kHz
Frame rate : 31.250 FPS (1536 spf)
Compression mode : Lossy
Stream size : 186 MiB (15%)
Alignment : Aligned on interleaves
Interleave, duration : 40 ms (1.00 video frame)
Interleave, preload duration : 512 ms
Скриншоты:



Скачать Месяц август через торрент http://i5-imageban-ru.translate.goog/out/2016/10/07/61f5989a6c0b94bd30bedeb27b514c3b.jpg Скачать, смотреть онлайн Месяц август бесплантно в хорошем качестве Описание: Поездив по стране, Алексей Крашенинников задержался в городе - на работе обещали квартиру. Но пришло письмо о том, что заболели ... 10 10 2
Info! Серебряная раздача, засчитывается только 50% скачанного.
Торрент: Зарегистрирован [2016-10-07 14:27] · скачан: 2 раз
Статус: √ проверено
Размер: 1.23 GB
Как cкачать? Как скачать Месяц август через торрент | UTorrent

28-11-2019 20:33  

Отключить вcю реклaмy на сайте

    Дорогой пользователь! Огромная просьба, поблагодарите релизера, оцените раздачу и оставьте свои комментарий, если Вы скачали Месяц август через торрент бесплатно!!
    Комментировать посты могут только пользователи прошедшие не сложную регистрацию
    Показать сообщения:    


    Месяц август через торрент
    Скачать бесплатно Месяц август
    Месяц август скачать торрент
    Месяц август смотреть онлайн
    Cкачать фильм Месяц август бесплатно
    Месяц август скачать торрент в хорошем качестве
    Месяц август смотреть онлайн бесплатно в хорошем качестве
    Вы не можете начинать темы
    Вы не можете отвечать на сообщения
    Вы не можете редактировать свои сообщения
    Вы не можете удалять свои сообщения
    Вы не можете голосовать в опросах
    Вы не можете прикреплять файлы к сообщениям
    Вы можете скачивать файлы