Ссылка на приватное зеркало нашего сайта всего за 1$. Внимание количество ограничено!!!

2 сезон

iTunes

1 сезон

1

iTunes

iTunes

iTunes

1 сезон

RePack

30

ИГРА 18+

pack

ВАЖНО

!!Акция!!

Alien_RageХит недели

RePack

MK11
pack

Забери бонус

RePack

jed

!!Акция!!

Alien_Rage

RePack

fifa19

RePack

Assassins Creed: Odyssey

RePack

NEED FOR SPEED™ PAYBACK

4 сезон

9 сезон

Бесстыжие 9 сезон

Все сериалы

все сериалы на PB.wtf

RePack

FAR CRY 5
  

Битва за Анцио / Lo sbarco di Anzio (Эдвард Дмитрик, Дуилио Колетти) [1968 г., драма, военный, история, WEB-DLRip] MVO piratbit.org

Битва за Анцио через торрент piratbit.org

Размер: 1.45 GB | Добавлен: 4 года назад | Торрент скачан:9 раз
Скачать  

08-10-2016 07:30 Битва за Анцио Скачать торрент  

Битва за Анцио / Lo sbarco di Anzio
Год выпуска: 1968
Страна: Италия, США
Жанр: драма, военный, история
Продолжительность: 01:57:32
Перевод: Профессиональный (многоголосый) [5-й канал СПб]

Режиссер: Эдвард Дмитрик, Дуилио Колетти

Премьера в мире: 24 июля 1968

rating

В ролях: Роберт Митчэм, Питер Фальк, Роберт Райан, Эрл Холлиман, Марк Дэймон, Артур Кеннеди, Рени Сантони, Джозеф Уолш, Томас Хантер, Джанкарло Джаннини, Энтони Стил, Патрик Мэги, Артур Франц, нио Селварт, Эльза Албани, Венантино Венантини, Аннабелла Андреоли

Описание: Фильм рассказывает историю битвы при Анцио — городе-порте на треугольном выступе Тирренского моря в Италии. Силы союзников высадились без проблем, но вместо того что-бы идти вперед, командование решает укрепляться. Военный корреспондент одолжив джип, едет в Рим и обратно, не встречая на своем пути германских сил. Но его доклад об отсутствии врага не учитывается. А к тому времени как было решено перейти в наступление, немцы уже основательно укрепили оборону…

Качество: WEB-DLRip
Формат: AVI
Видео кодек: XviD
Аудио кодек: AC3
Видео: XviD, 1568 Кбит/с, 720x304, 23.976 кадр/с
Аудио: AC3, 2 ch, 192 Кбит/с, 48 kHz
Релиз от: Koenig
Общее
Полное имя : The.Battle.For.Anzio.1968.WEB-DLRip.avi
Формат : AVI
Формат/Информация : Audio Video Interleave
Размер файла : 1,45 Гбайт
Продолжительность : 1 ч. 57 м.
Общий поток : 1769 Кбит/сек
Программа кодирования : VirtualDubMod 1.5.10.2 (build 2540/release)
Библиотека кодирования : VirtualDubMod build 2540/release

Видео
Идентификатор : 0
Формат : MPEG-4 Visual
Профиль формата : Advanced Simple@L5
Параметр BVOP формата : 1
Параметр QPel формата : Нет
Параметр GMC формата : Без точки перехода
Параметр матрицы формата : Выборочная
Идентификатор кодека : XVID
Идентификатор кодека/Подсказка : XviD
Продолжительность : 1 ч. 57 м.
Битрейт : 1568 Кбит/сек
Ширина : 720 пикселей
Высота : 304 пикселя
Соотношение сторон : 2,35:1
Частота кадров : 23,976 (23976/1000) кадра/сек
Цветовое пространство : YUV
Субдискретизация насыщенности : 4:2:0
Битовая глубина : 8 бит
Тип развёртки : Прогрессивная
Метод сжатия : С потерями
Бит/(Пиксели*Кадры) : 0.299
Размер потока : 1,29 Гбайт (89%)
Библиотека кодирования : XviD 73

Аудио
Идентификатор : 1
Формат : AC-3
Формат/Информация : Audio Coding 3
Расширение режима : CM (complete main)
Параметр Endianness формата : Big
Идентификатор кодека : 2000
Продолжительность : 1 ч. 57 м.
Вид битрейта : Постоянный
Битрейт : 192 Кбит/сек
Каналы : 2 канала
Расположение каналов : Front: L R
Частота : 48,0 КГц
Частота кадров : 31,250 кадров/сек (1536 spf)
Метод сжатия : С потерями
Размер потока : 161 Мбайт (11%)
Выравнивание : Разделение по промежуткам
Продолжительность промежутка : 42 мс. (1,00 видеокадр)
Время предзагрузки промежутка : 500 мс.

piratbit.org



Скачать Битва за Анцио через торрент http://pic1.kartinco.top/images/10/yqapk.jpg Скачать фильм Битва за Анцио через торрент бесплантно в хорошем качестве Описание: Фильм рассказывает историю битвы при Анцио — городе-порте на треугольном выступе Тирренского моря в Италии. Силы союзников ... 10 10 1
Info! Золотая раздача, скачанное не засчитывается.
Торрент: Зарегистрирован [2016-10-08 07:30] · скачан: 9 раз
Статус: √ проверено
Размер: 1.45 GB
Как cкачать? Как скачать Битва за Анцио через торрент | qTorrent

28-11-2019 20:33  

Отключить всю рекламу на сайте

    Дорогой пользователь! Огромная просьба, поблагодарите релизера, оцените раздачу и оставьте свои комментарий, если Вы скачали Битва за Анцио через торрент бесплатно! Внесите свою лепту в развитие PiratBit!
    Комментировать посты могут только пользователи прошедшие не сложную регистрацию
    Показать сообщения:    

    Битва за Анцио через торрент
    Скачать бесплатно Битва за Анцио
    Битва за Анцио скачать торрент
    Битва за Анцио смотреть онлайн
    Cкачать фильм Битва за Анцио бесплатно
    Битва за Анцио скачать торрент в хорошем качестве
    Битва за Анцио смотреть онлайн бесплатно в хорошем качестве


    Вы не можете начинать темы
    Вы не можете отвечать на сообщения
    Вы не можете редактировать свои сообщения
    Вы не можете удалять свои сообщения
    Вы не можете голосовать в опросах
    Вы не можете прикреплять файлы к сообщениям
    Вы можете скачивать файлы