1 сезон

3 сезон

iTunes

1

iTunes

DUB Netflix

iTunes

13

1 сезон

RePack

30

Deluxe

pack

Легкие деньги

ВАЖНО

ИГРА 18+

pack

RePack

MK11

RePack

jed

RePack

fifa19

RePack

RDR2

RePack

NEED FOR SPEED™ PAYBACK

4 сезон

9 сезон

Бесстыжие 9 сезон

Все сериалы

все сериалы на PB.wtf

RePack

FAR CRY 5

Anonymous, добрый вечер, мы не успеваем до 1 числа собрать деньги на оплату серверов, помогите нам пожалуйста в это трудное время. В качестве благодарности мы отключим Вам всю рекламу на сайте (укажите свой ник в строку Ваше имя)!

×
  
Magnet ссылка

Крутые меры / Bastille Day (Джеймс Уоткинс) [2016, боевик, драма, HDRip] Дубляж - [Лицензия / iTunes] piratbit.org

Крутые меры через торрент piratbit.org

Размер: 1.37 GB | Добавлен: 4 года 8 мес. назад | Торрент скачан:406 раз
Скачать  

09-10-2016 22:26 Крутые меры Скачать торрент  

Крутые меры / Bastille Day

Год выпуска: 2016
Страна: Великобритания, Франция, США
Жанр: боевик, драма

Продолжительность: 01:31:49
Перевод: Дубляж - [Лицензия / iTunes]
Субтитры: Английские (вшитые, не отключаемые)
Режиссер: Джеймс Уоткинс
В ролях:

Идрис Эльба (Sean Briar), Ричард Мэдден (Michael Mason), Келли Райлли (Karen Dacre), Шарлотта Ле Бон (Zoe Naville), Анатол Юсеф (Tom Luddy), Хосе Гарсия (Victor Gamieux), Хорхе Леон Мартинес (Rioter), Стефани Кайлар (Beatrice), Лаура Хидари (Yellow Mask Protestor), Эрик Эбони (Baba), Александр Купер (City Cop), Карл Фаррер (Journalist)
Описание:
Ловкий карманник Майкл Мэйсон привлекает внимание полиции и спецслужб, когда крадет сумку, содержащую гораздо больше, чем просто бумажник. На его след выходит дерзкий и резкий спецагент ЦРУ Шон Брайар. Вдвоем они становятся мишенью тайной преступной организации и в течение суток должны вывести злоумышленников на чистую воду.
Рейтинг:

MPAA: R - Лицам до 17 лет обязательно присутствие взрослого
Качество: HDRip
Формат: AVI
Видео: XviD, 720x304 (2.35:1), 1657 kbps, 24 fps, 0,315 bpp
Аудио: AC3 / 5.1 / 48 kHz / 384 kbps /

General
Complete name : E:\Bastille.Day.2016.D.HDRip.avi
Format : AVI
Format/Info : Audio Video Interleave
File size : 1.37 GiB
Duration : 1 h 31 min
Overall bit rate : 2 135 kb/s
Movie name : KPuTYe.mePY.2o16.D.HDRip.14OOMB
Writing application : VirtualDubMod 1.5.10.2 (build 2540/release)
Original source form/Name : Movie

Video
ID : 0
Format : MPEG-4 Visual
Format profile : Advanced Simple@L5
Format settings, BVOP : 2
Format settings, QPel : No
Format settings, GMC : No warppoints
Format settings, Matrix : Custom
Codec ID : XVID
Codec ID/Hint : XviD
Duration : 1 h 31 min
Bit rate : 1 657 kb/s
Width : 720 pixels
Height : 304 pixels
Display aspect ratio : 2.35:1
Frame rate : 24.000 FPS
Color space : YUV
Chroma subsampling : 4:2:0
Bit depth : 8 bits
Scan type : Progressive
Compression mode : Lossy
Bits/(Pixel*Frame) : 0.315
Stream size : 1.06 GiB (78%)
Writing library : XviD 1.2.1 (UTC 2008-12-04)

Audio
ID : 1
Format : AC-3
Format/Info : Audio Coding 3
Mode extension : CM (complete main)
Format settings, Endianness : Big
Codec ID : 2000
Duration : 1 h 31 min
Bit rate mode : Constant
Bit rate : 384 kb/s
Channel(s) : 6 channels
Channel positions : Front: L C R, Side: L R, LFE
Sampling rate : 48.0 kHz
Frame rate : 31.250 FPS (1536 spf)
Compression mode : Lossy
Stream size : 252 MiB (18%)
Alignment : Split accross interleaves
piratbit.org



Скачать Крутые меры через торрент http://i6.imageban.ru/out/2016/10/10/d9f04fa47c841327f640cfb2c89e8cca.jpg Скачать фильм Крутые меры через торрент бесплантно в хорошем качестве Описание: Ловкий карманник Майкл Мэйсон привлекает внимание полиции и спецслужб, когда крадет сумку, содержащую гораздо больше, чем просто ... 8.6 10 16
Торрент: Зарегистрирован [2016-10-09 22:26] · скачан: 406 раз
Статус: √ проверено
Размер: 1.37 GB
Как cкачать? Как скачать Крутые меры через торрент | UTorrent

% Раздел Тема Автор DL S | L
Фильмы 2016 [DVDrip, WEB-DLRip, HDrip] (DUB, MVO) [ 745 MB ] Крутые меры / Bastille Day [2016 BDRip-AVC] DUB [] bober100 Скачать
1 | 0
Фильмы 2016 [DVDrip, WEB-DLRip, HDrip] (DUB, MVO) [ 1.46 GB ] Крутые меры / Bastille Day [2016 BDRip] - [] Twi7ter Скачать
4 | 0
Фильмы (Blu-ray, BD-Remux, HDDVD) [ 15.36 GB ] Крутые меры / Bastille Day [2016 BDRemux 1080p от ExKinoRay] RUS Transfer / DUB Russian Mafia Скачать
1 | 0
Фильмы [HD 720p, 1080p] (Хороший звук DUB, MVO) [ 11.1 GB ] Крутые меры / Bastille Day [2016 BDRip 1080p] - Авторский одноголосый [Дмитрий Есарев] -Lexx- Скачать
1 | 0
Фильмы 2016 [DVDrip, WEB-DLRip, HDrip] (DUB, MVO) [ 708 MB ] Крутые меры / Bastille Day [2016 HDRip ] coc900 Скачать
1 | 0
Фильмы (Blu-ray, BD-Remux, HDDVD) [ 22.92 GB ] Крутые меры / Bastille Day [2016 BDRemux 1080p от ExKinoRay] AVO Russian Mafia Скачать
1 | 0
Фильмы с авторской озвучкой [ 1.46 GB ] Крутые меры / Bastille Day [2016 BDRip Авторский [Дмитрий Есарев] Twi7ter Скачать
1 | 0

28-11-2019 20:33  

Отключить всю рекламу на сайте

    Дорогой пользователь! Огромная просьба, поблагодарите релизера, оцените раздачу и оставьте свои комментарий, если Вы скачали Крутые меры через торрент бесплатно! Внесите свою лепту в развитие PiratBit!
    Комментировать посты могут только пользователи прошедшие не сложную регистрацию
    Показать сообщения:    

    Крутые меры через торрент
    Скачать бесплатно Крутые меры
    Крутые меры скачать торрент
    Крутые меры смотреть онлайн
    Cкачать фильм Крутые меры бесплатно
    Крутые меры скачать торрент в хорошем качестве
    Крутые меры смотреть онлайн бесплатно в хорошем качестве


    Вы не можете начинать темы
    Вы не можете отвечать на сообщения
    Вы не можете редактировать свои сообщения
    Вы не можете удалять свои сообщения
    Вы не можете голосовать в опросах
    Вы не можете прикреплять файлы к сообщениям
    Вы можете скачивать файлы