Доктор Стрэндж

Лицензия

Добыча

MVO

Дом дракона

1 сезон

Тор

Лицензия

Мэверик

Лицензия

Там, где раки поют

MVO

Властелин колец

1 сезон

Ultimate

pack

Рекомендуем

30

Repack

ВАЖНО

ВАЖНО

Ghostwire

RePack

jed

RePack

nioh2

RePack

RDR2

RePack

NEED FOR SPEED™ PAYBACK

RePack

скачать торрент

Кинопоиск HD

Острые козырьки 6 сезон

6 сезон

FAR CRY 6

RePack

скачать торрент

Лицензия

скачать торрент

MVO

1

1 сезон

скачать торрент

1 сезон

скачать торрент

Лицензия

  

Ханума (Георгий Товстоногов ) [1978, мюзикл, комедия, DVDRip-AVC]

Ханума через торрент piratbit.org

Размер: 2.05 GB | Добавлен: 5 лет 11 мес. назад | Торрент скачан:61 раз
Смотреть онлайн | Скачать   

10-10-2016 18:22 Ханума Скачать торрент  

Ханума

Год выпуска: 1978
Страна: СССР
Жанр: мюзикл, комедия

Продолжительность: 02:19:12
Перевод: Не требуется [Русский]
Режиссер: Георгий Товстоногов
В ролях: Людмила Макарова (Ханума), Владислав Стржельчик (Вано Пантиашвили), Вадим Медведев, Валентина Ковель, Николай Трофимов (Акоп), Геннадий Богачёв, Всеволод Кузнецов, Леонид Неведомский, Мария Призван-Соколова, Георгий Штиль, Евгений Чудаков (кинто), Ирина Ефремова
Описание:
Состоятельный тифлисский купец мечтает выдать свою дочь Сону замуж за разорившегося князя, чтобы получить дворянское звание. Между тем Сона в отчаянии. Она влюблена в своего учителя музыки и французского языка и не хочет выходить замуж за престарелого князя...

Качество: DVDRip-AVC
Формат: MKV
Видео: AVC, 712x520 (4:3), 1913 kbps, 25 fps, 0,207 bpp
Аудио: русский / AC3 / 2.0 / 48 kHz / 192 kbps /
Навигация по главам: есть

General
Unique ID Ханума (Полная реставрация ''Крупный план'').mkv
Format : Matroska
Format version : Version 2
File size : 2.05 GiB
Duration : 2 h 19 min
Overall bit rate : 2 107 kb/s
Encoded date : UTC 2016-08-29 15:51:35
Writing application : mkvmerge v3.4.0 ('Rapunzel') сборка от May 15 2010 09:38:20
Writing library : libebml v0.8.0 + libmatroska v0.9.0
Attachments : Лог кодирования.log

Video
ID : 1
Format : AVC
Format/Info : Advanced Video Codec
Format profile : High@L4.1
Format settings, CABAC : Yes
Format settings, ReFrames : 11 frames
Codec ID : V_MPEG4/ISO/AVC
Duration : 2 h 19 min
Bit rate : 1 913 kb/s
Width : 712 pixels
Height : 520 pixels
Display aspect ratio : 4:3
Frame rate mode : Constant
Frame rate : 25.000 FPS
Color space : YUV
Chroma subsampling : 4:2:0
Bit depth : 8 bits
Scan type : Progressive
Bits/(Pixel*Frame) : 0.207
Stream size : 1.82 GiB (89%)
Title : Ханума (Полная реставрация ''Крупный план'') (Khanuma) (Full Restoration Of ''Close-Up'')
Writing library : x264 core 148 r2638 7599210
Encoding settings : cabac=1 / ref=11 / deblock=1:-1:-1 / analyse=0x3:0x133 / me=umh / subme=11 / psy=1 / psy_rd=1.00:0.15 / mixed_ref=1 / me_range=64 / chroma_me=1 / trellis=2 / 8x8dct=1 / cqm=0 / deadzone=21,11 / fast_pskip=0 / chroma_qp_offset=-3 / threads=6 / lookahead_threads=1 / sliced_threads=0 / nr=0 / decimate=0 / interlaced=0 / bluray_compat=0 / constrained_intra=0 / bframes=16 / b_pyramid=2 / b_adapt=2 / b_bias=0 / direct=3 / weightb=1 / open_gop=0 / weightp=2 / keyint=250 / keyint_min=25 / scenecut=40 / intra_refresh=0 / rc_lookahead=60 / rc=2pass / mbtree=0 / bitrate=1913 / ratetol=1.0 / qcomp=0.60 / qpmin=0 / qpmax=69 / qpstep=4 / cplxblur=20.0 / qblur=0.5 / vbv_maxrate=50000 / vbv_bufsize=62500 / nal_hrd=none / filler=0 / ip_ratio=1.40 / pb_ratio=1.30 / aq=1:1.00
Language : Russian
Default : Yes
Forced : No

Audio
ID : 2
Format : AC-3
Format/Info : Audio Coding 3
Mode extension : CM (complete main)
Format settings, Endianness : Big
Codec ID : A_AC3
Duration : 2 h 19 min
Bit rate mode : Constant
Bit rate : 192 kb/s
Channel(s) : 2 channels
Channel positions : Front: L R
Sampling rate : 48.0 kHz
Frame rate : 31.250 FPS (1536 spf)
Compression mode : Lossy
Stream size : 191 MiB (9%)
Title : Оригинал (AC-3, Постоянный, 192 Кбит/сек, 2 канала, 48,0 КГц)
Language : Russian
Default : Yes
Forced : No

Menu
00:00:00.000 : en:Chapter 01
00:13:07.600 : en:Chapter 02
00:20:12.320 : en:Chapter 03
00:31:51.400 : en:Chapter 04
00:36:17.800 : en:Chapter 05
00:43:16.080 : en:Chapter 06
00:53:30.480 : en:Chapter 07
00:59:23.000 : en:Chapter 08
01:13:08.000 : en:Chapter 09
01:23:27.880 : en:Chapter 10
01:30:20.800 : en:Chapter 11
01:40:00.560 : en:Chapter 12
01:54:04.120 : en:Chapter 13
02:02:40.760 : en:Chapter 14
02:05:22.320 : en:Chapter 15
02:09:33.360 : en:Chapter 16
02:19:10.640 : en:Chapter 17
Скриншоты:



Скачать Ханума через торрент http://i6-imageban-ru.translate.goog/out/2016/10/10/0d7f355fea464dc6673d2b9cb48c0028.jpg Скачать, смотреть онлайн Ханума бесплантно в хорошем качестве Описание: Состоятельный тифлисский купец мечтает выдать свою дочь Сону замуж за разорившегося князя, чтобы получить дворянское звание. ... 10 10 3
Info! Серебряная раздача, засчитывается только 50% скачанного.
Торрент: Зарегистрирован [2016-10-10 18:22] · скачан: 61 раз
Статус: √ проверено
Размер: 2.05 GB
Как cкачать? Как скачать Ханума через торрент | UTorrent

28-11-2019 20:33  


Отключить вcю реклaмy на сайте, в т.ч. и в плеере онлайн просмотра!

    Дорогой пользователь! Огромная просьба, поблагодарите релизера, оцените раздачу и оставьте свои комментарий, если Вы скачали Ханума через торрент бесплатно!!
    Комментировать посты могут только пользователи прошедшие не сложную регистрацию
    Показать сообщения:    


    Ханума через торрент
    Скачать бесплатно Ханума
    Ханума скачать торрент
    Ханума смотреть онлайн
    Cкачать фильм Ханума бесплатно
    Ханума скачать торрент в хорошем качестве
    Ханума смотреть онлайн бесплатно в хорошем качестве
    Вы не можете начинать темы
    Вы не можете отвечать на сообщения
    Вы не можете редактировать свои сообщения
    Вы не можете удалять свои сообщения
    Вы не можете голосовать в опросах
    Вы не можете прикреплять файлы к сообщениям
    Вы можете скачивать файлы