Доктор Стрэндж

Лицензия

Добыча

Дубляж

Дом дракона

1 сезон

Тор

Дубляж

В эфире

Дубляж

Там, где раки поют

MVO

Властелин колец

1 сезон

Ultimate

pack

Рекомендуем

30

Пиратка

ВАЖНО

ВАЖНО

Ghostwire

Пиратка

jed

RePack

nioh2

RePack

RDR2

RePack

NEED FOR SPEED™ PAYBACK

RePack

скачать торрент

Кинопоиск HD

Острые козырьки 6 сезон

6 сезон

FAR CRY 6

RePack

скачать торрент

Лицензия

скачать торрент

MVO

1

1 сезон

скачать торрент

1 сезон

скачать торрент

Лицензия

  

Инцидент / The Incident (Александр Кортес) [2011 г., ужасы, триллер, BDRip 720p] VO

Инцидент через торрент piratbit.org

Размер: 2.55 GB | Добавлен: 6 лет 1 мес. назад | Торрент скачан:116 раз
Смотреть онлайн | Скачать   

11-10-2016 17:02 Инцидент Скачать торрент  

Инцидент / The Incident
Год выпуска: 2011
Страна: США, Франция, Бельгия
Жанр: ужасы, триллер
Продолжительность: 01:24:27
Перевод: Любительский (одноголосый) [den904]
Субтитры: Английские

Режиссер: Александр Кортес

Премьера в мире: 12 сентября 2011

rating

В ролях: Руперт Эванс, Ричард Брэйк, Анна Скеллерн, Дэйв Леджено, Кенни Даути, Эрик Годон, Даррен Кент, Маркус Гарви, Джозеф Кеннеди, Йен Лайонс

Описание: Группа поваров работает на кухне тюрьмы для сумасшедших преступников. Однажды ночью, во время грозы, дает сбой система безопасности и все сумасшедшие свободны. И пока есть надежда, что кто нибудь придет на помощь, им нужно как-то выжить…

Качество: BDRip 720p
Формат: MKV
Видео кодек: H.264
Аудио кодек: AC3
Видео: MPEG-4 AVC, 3500 Кбит/с, 1280x536, 24 кадр/с
Аудио#1: AC3, 2 ch, 192 Кбит/с, 48 kHz | Русский
Аудио#2: AC3, 6 ch, 640 Кбит/с, 48 kHz | Aнглийский
Релиз от: Koenig
Общее
Уникальный идентификатор : 227183445767686063792714976433156182944 (0xAAE9F0AADF5619D19324258E8DCCD3A0)
Полное имя : The.Incident.2011.BDRip.720p.mkv
Формат : Matroska
Версия формата : Version 4 / Version 2
Размер файла : 2,55 Гбайт
Продолжительность : 1 ч. 24 м.
Общий поток : 4330 Кбит/сек
Название фильма : The Incident by Koenig
Дата кодирования : UTC 2016-10-11 10:29:21
Программа кодирования : mkvmerge v9.2.0 ('Photograph') 32bit
Библиотека кодирования : libebml v1.3.3 + libmatroska v1.4.4
Attachments : 2016-10-11_060457.jpg

Видео
Идентификатор : 1
Формат : AVC
Формат/Информация : Advanced Video Codec
Профиль формата : High@L4.1
Параметр CABAC формата : Да
Параметр ReFrames формата : 9 кадров
Идентификатор кодека : V_MPEG4/ISO/AVC
Продолжительность : 1 ч. 24 м.
Битрейт : 3499 Кбит/сек
Ширина : 1280 пикселей
Высота : 536 пикселей
Соотношение сторон : 2,40:1
Режим частоты кадров : Постоянный
Частота кадров : 24,000 кадра/сек
Цветовое пространство : YUV
Субдискретизация насыщенности : 4:2:0
Битовая глубина : 8 бит
Тип развёртки : Прогрессивная
Бит/(Пиксели*Кадры) : 0.212
Размер потока : 2,06 Гбайт (81%)
Библиотека кодирования : x264 core 148 r2692 64f4e24
Настройки программы : cabac=1 / ref=9 / deblock=1:-3:-3 / analyse=0x3:0x133 / me=umh / subme=10 / psy=1 / psy_rd=1.00:0.05 / mixed_ref=1 / me_range=32 / chroma_me=1 / trellis=2 / 8x8dct=1 / cqm=0 / deadzone=21,11 / fast_pskip=1 / chroma_qp_offset=-3 / threads=3 / lookahead_threads=1 / sliced_threads=0 / nr=0 / decimate=1 / interlaced=0 / bluray_compat=0 / constrained_intra=0 / bframes=11 / b_pyramid=2 / b_adapt=2 / b_bias=0 / direct=3 / weightb=1 / open_gop=0 / weightp=2 / keyint=240 / keyint_min=24 / scenecut=40 / intra_refresh=0 / rc_lookahead=40 / rc=2pass / mbtree=1 / bitrate=3499 / ratetol=1.0 / qcomp=0.60 / qpmin=0 / qpmax=51 / qpstep=4 / cplxblur=20.0 / qblur=0.5 / vbv_maxrate=62500 / vbv_bufsize=50000 / nal_hrd=none / filler=0 / ip_ratio=1.40 / aq=1:1.00
Default : Да
Forced : Нет

Аудио #1
Идентификатор : 2
Формат : AC-3
Формат/Информация : Audio Coding 3
Расширение режима : CM (complete main)
Параметр Endianness формата : Big
Идентификатор кодека : A_AC3
Продолжительность : 1 ч. 24 м.
Вид битрейта : Постоянный
Битрейт : 192 Кбит/сек
Каналы : 2 канала
Расположение каналов : Front: L R
Частота : 48,0 КГц
Частота кадров : 31,250 кадров/сек (1536 spf)
Метод сжатия : С потерями
Размер потока : 116 Мбайт (4%)
Заголовок : VO - den904
Язык : Russian
Default : Да
Forced : Нет

Аудио #2
Идентификатор : 3
Формат : AC-3
Формат/Информация : Audio Coding 3
Расширение режима : CM (complete main)
Параметр Endianness формата : Big
Идентификатор кодека : A_AC3
Продолжительность : 1 ч. 24 м.
Вид битрейта : Постоянный
Битрейт : 640 Кбит/сек
Каналы : 6 каналов
Расположение каналов : Front: L C R, Side: L R, LFE
Частота : 48,0 КГц
Частота кадров : 31,250 кадров/сек (1536 spf)
Метод сжатия : С потерями
Размер потока : 387 Мбайт (15%)
Заголовок : Original
Язык : English
Default : Нет
Forced : Нет

Текст
Идентификатор : 4
Формат : UTF-8
Идентификатор кодека : S_TEXT/UTF8
Идентификатор кодека/Информация : UTF-8 Plain Text
Продолжительность : 1 ч. 18 м.
Битрейт : 36 бит/сек
Count of elements : 947
Размер потока : 20,8 Кбайт (0%)
Язык : English
Default : Да
Forced : Нет

Меню
00:00:00.000 : en:00:00:00.000
00:06:16.458 : en:00:06:16.458
00:14:04.375 : en:00:14:04.375
00:21:34.125 : en:00:21:34.125
00:27:27.333 : en:00:27:27.333
00:36:58.042 : en:00:36:58.042
00:44:57.042 : en:00:44:57.042
00:50:47.125 : en:00:50:47.125
00:59:53.458 : en:00:59:53.458
01:06:06.375 : en:01:06:06.375
01:13:11.000 : en:01:13:11.000
01:20:11.208 : en:01:20:11.208

x264 [info]: frame I:807 Avg QP:10.40 size:112846
x264 [info]: frame P:26553 Avg QP:13.20 size: 32358
x264 [info]: frame B:94249 Avg QP:14.63 size: 13411
x264 [info]: consecutive B-frames: 2.3% 3.6% 9.8% 16.3% 14.7% 36.4% 7.3% 1.7% 3.2% 0.5% 1.3% 2.8%




Скачать Инцидент через торрент https://pic1.kartinco.top/images/10/l3xj4.jpg Скачать, смотреть онлайн Инцидент бесплантно в хорошем качестве Описание: Группа поваров работает на кухне тюрьмы для сумасшедших преступников. Однажды ночью, во время грозы, дает сбой система ... 7.6 10 5
Info! Серебряная раздача, засчитывается только 50% скачанного.
Торрент: Зарегистрирован [2016-10-11 17:02] · скачан: 116 раз
Статус: √ проверено
Размер: 2.55 GB
Как cкачать? Как скачать Инцидент через торрент | UTorrent

% Раздел Тема Автор DL S | L
T Фильмы 2011 [ 1.38 GB ] Инцидент / The Incident | | HDRip, VO MrKuzj Скачать
1 | 0

28-11-2019 20:33  


Отключить вcю реклaмy на сайте, в т.ч. и в плеере онлайн просмотра!

11-10-2016 21:06 Инцидент Скачать торрент  

Не видел,надо закрыть пробел



    Дорогой пользователь! Огромная просьба, поблагодарите релизера, оцените раздачу и оставьте свои комментарий, если Вы скачали Инцидент через торрент бесплатно!!
    Комментировать посты могут только пользователи прошедшие не сложную регистрацию
    Показать сообщения:    


    Инцидент через торрент
    Скачать бесплатно Инцидент
    Инцидент скачать торрент
    Инцидент смотреть онлайн
    Cкачать фильм Инцидент бесплатно
    Инцидент скачать торрент в хорошем качестве
    Инцидент смотреть онлайн бесплатно в хорошем качестве
    Вы не можете начинать темы
    Вы не можете отвечать на сообщения
    Вы не можете редактировать свои сообщения
    Вы не можете удалять свои сообщения
    Вы не можете голосовать в опросах
    Вы не можете прикреплять файлы к сообщениям
    Вы можете скачивать файлы
    Инцидент / The Incident [2011 г., ужасы, триллер, BDRip 720p] VO смотреть онлайн, скачать торрент picoco.icu