1 сезон

3 сезон

iTunes

1

iTunes

DUB Netflix

iTunes

13

1 сезон

RePack

30

Deluxe

pack

Легкие деньги

ВАЖНО

ИГРА 18+

pack

RePack

MK11

RePack

jed

RePack

fifa19

RePack

RDR2

RePack

NEED FOR SPEED™ PAYBACK

4 сезон

9 сезон

Бесстыжие 9 сезон

Все сериалы

все сериалы на PB.wtf

RePack

FAR CRY 5

Anonymous, доброй ночи, мы не успеваем до 1 числа собрать деньги на оплату серверов, помогите нам пожалуйста в это трудное время. В качестве благодарности мы отключим Вам всю рекламу на сайте (укажите свой ник в строку Ваше имя)!

×
  
Magnet ссылка

Крутые меры / Bastille Day [2016 г., боевик, драма, HDRip, Дубляж iTunes] piratbit.org

Крутые меры через торрент piratbit.org

Размер: 708 MB | Добавлен: 4 года 8 мес. назад | Торрент скачан:215 раз
Скачать  

11-10-2016 17:50 Крутые меры Скачать торрент  

Крутые меры / Bastille Day
Год выпуска: 2016
Страна: Великобритания, Франция, США / StudioCanal, Amazon Prime Instant Video, Anonymous Content
Жанр: боевик, драма
Продолжительность: 01:31:48
Перевод: Дубляж (iTunes)

rating

В ролях: Идрис Эльба, Ричард Мэдден, Келли Райлли, Шарлотта Ле Бон, Анатол Юсеф, Хосе Гарсия, Хорхе Леон Мартинес, Стефани Кайлар, Лаура Хидари, Эрик Эбони

Описание: Ловкий карманник Майкл Мэйсон привлекает внимание полиции и спецслужб, когда крадет сумку, содержащую гораздо больше, чем просто бумажник. На его след выходит дерзкий и резкий спецагент ЦРУ Шон Брайар. Вдвоем они становятся мишенью тайной преступной организации и в течение суток должны вывести злоумышленников на чистую воду.

Качество: HDRip
Формат: AVI
Видео кодек: XviD
Аудио кодек: MP3
Видео: 640x272 (2.35:1), 24 fps, XviD build 50 ~940 kbps avg, 0.23 bit/pixel
Аудио: 48 kHz, MPEG Layer 3, 2 ch, ~128.00 kbps avg

Общее
Полное имя : D:\фильмы\ФИЛЬМЫ\Крутые меры.2016.D.HDRip.avi
Формат : AVI
Формат/Информация : Audio Video Interleave
Размер файла : 708 Мбайт
Продолжительность : 1 ч. 31 м.
Общий поток : 1078 Кбит/сек
Программа кодирования : VirtualDubMod 1.5.10.3 | www.virtualdub-fr.org || (build 2550/release)
Библиотека кодирования : VirtualDubMod build 2550/release

Видео
Идентификатор : 0
Формат : MPEG-4 Visual
Профиль формата : Advanced Simple@L5
Параметр BVOP формата : 1
Параметр QPel формата : Нет
Параметр GMC формата : Без точки перехода
Параметр матрицы формата : Default (MPEG)
Идентификатор кодека : XVID
Идентификатор кодека/Подсказка : XviD
Продолжительность : 1 ч. 31 м.
Битрейт : 940 Кбит/сек
Ширина : 640 пикселей
Высота : 272 пикселя
Соотношение сторон : 2,35:1
Частота кадров : 24,000 кадра/сек
Цветовое пространство : YUV
Субдискретизация насыщенности : 4:2:0
Битовая глубина : 8 бит
Тип развёртки : Прогрессивная
Метод сжатия : С потерями
Бит/(Пиксели*Кадры) : 0.225
Размер потока : 618 Мбайт (87%)
Библиотека кодирования : XviD 1.2.1 (UTC 2008-12-04)

Аудио
Идентификатор : 1
Формат : MPEG Audio
Версия формата : Version 1
Профиль формата : Layer 3
Режим : Joint stereo
Идентификатор кодека : 55
Идентификатор кодека/Подсказка : MP3
Продолжительность : 1 ч. 31 м.
Вид битрейта : Постоянный
Битрейт : 128 Кбит/сек
Каналы : 2 канала
Частота : 48,0 КГц
Метод сжатия : С потерями
Размер потока : 84,1 Мбайт (12%)
Выравнивание : Соединение по промежуткам
Продолжительность промежутка : 42 мс. (1,00 видеокадр)
Время предзагрузки промежутка : 504 мс.
Библиотека кодирования : LAME3.99r
Настройки программы : -m j -V 4 -q 2 -lowpass 17 -b 128

piratbit.org



Скачать Крутые меры через торрент https://pic.kartinco.top/images/11/pisrh.jpg Скачать фильм Крутые меры через торрент бесплантно в хорошем качестве Описание: Ловкий карманник Майкл Мэйсон привлекает внимание полиции и спецслужб, когда крадет сумку, содержащую гораздо больше, чем просто ... 9.2 10 12
Info! Золотая раздача, скачанное не засчитывается.
Торрент: Зарегистрирован [2016-10-11 17:50] · скачан: 215 раз
Статус: √ проверено
Размер: 708 MB
Как cкачать? Как скачать Крутые меры через торрент | UTorrent

% Раздел Тема Автор DL S | L
Фильмы 2016 [DVDrip, WEB-DLRip, HDrip] (DUB, MVO) [ 745 MB ] Крутые меры / Bastille Day [2016 BDRip-AVC] DUB [] bober100 Скачать
1 | 0
Фильмы 2016 [DVDrip, WEB-DLRip, HDrip] (DUB, MVO) [ 1.46 GB ] Крутые меры / Bastille Day [2016 BDRip] - [] Twi7ter Скачать
1 | 0
Фильмы (Blu-ray, BD-Remux, HDDVD) [ 15.36 GB ] Крутые меры / Bastille Day [2016 BDRemux 1080p от ExKinoRay] RUS Transfer / DUB Russian Mafia Скачать
1 | 0
Фильмы [HD 720p, 1080p] (Хороший звук DUB, MVO) [ 11.1 GB ] Крутые меры / Bastille Day [2016 BDRip 1080p] - Авторский одноголосый [Дмитрий Есарев] -Lexx- Скачать
1 | 0
Фильмы (Blu-ray, BD-Remux, HDDVD) [ 22.92 GB ] Крутые меры / Bastille Day [2016 BDRemux 1080p от ExKinoRay] AVO Russian Mafia Скачать
1 | 0
Фильмы 2016 [DVDrip, WEB-DLRip, HDrip] (DUB, MVO) [ 1.37 GB ] Крутые меры / Bastille Day [2016 HDRip] - -Lexx- Скачать
1 | 0
Фильмы с авторской озвучкой [ 1.46 GB ] Крутые меры / Bastille Day [2016 BDRip Авторский [Дмитрий Есарев] Twi7ter Скачать
1 | 0

28-11-2019 20:33  

Отключить всю рекламу на сайте

11-10-2016 19:46 Крутые меры Скачать торрент  

"дерзкий и резкий спецагент ЦРУ"
круть piratbit.org



    Дорогой пользователь! Огромная просьба, поблагодарите релизера, оцените раздачу и оставьте свои комментарий, если Вы скачали Крутые меры через торрент бесплатно! Внесите свою лепту в развитие PiratBit!
    Комментировать посты могут только пользователи прошедшие не сложную регистрацию
    Показать сообщения:    

    Крутые меры через торрент
    Скачать бесплатно Крутые меры
    Крутые меры скачать торрент
    Крутые меры смотреть онлайн
    Cкачать фильм Крутые меры бесплатно
    Крутые меры скачать торрент в хорошем качестве
    Крутые меры смотреть онлайн бесплатно в хорошем качестве


    Вы не можете начинать темы
    Вы не можете отвечать на сообщения
    Вы не можете редактировать свои сообщения
    Вы не можете удалять свои сообщения
    Вы не можете голосовать в опросах
    Вы не можете прикреплять файлы к сообщениям
    Вы можете скачивать файлы