1 сезон

3 сезон

iTunes

1

iTunes

DUB Netflix

iTunes

13

1 сезон

RePack

30

Deluxe

pack

Легкие деньги

ВАЖНО

ИГРА 18+

pack

RePack

MK11

RePack

jed

RePack

fifa19

RePack

RDR2

RePack

NEED FOR SPEED™ PAYBACK

4 сезон

9 сезон

Бесстыжие 9 сезон

Все сериалы

все сериалы на PB.wtf

RePack

FAR CRY 5

Anonymous, доброй ночи, мы не успеваем до 1 числа собрать деньги на оплату серверов, помогите нам пожалуйста в это трудное время. В качестве благодарности мы отключим Вам всю рекламу на сайте (укажите свой ник в строку Ваше имя)!

×
  
Magnet ссылка

Акула-Франкенштейн / Sharkenstein (Марк Полония) [2016, ужасы, WEB-DLRip] Любительский [многоголосый] piratbit.org

Акула-Франкенштейн через торрент piratbit.org

Размер: 1.37 GB | Добавлен: 4 года 8 мес. назад | Торрент скачан:111 раз
Скачать  

13-10-2016 20:29 Акула-Франкенштейн Скачать торрент  


Акула-Франкенштейн / Sharkenstein


ИНФОРМАЦИЯ:
Год выпуска:2016
Страна: США
Жанр: ужасы
Продолжительность: 01:13:57
Перевод: Любительский [многоголосый]
Режиссер: Марк Полония

В Ролях:
Greta Volkova (Madge), James Carolus (Skip), Titus Himmelberger (Coop), Jeff Kirkendall (Klaus), Кен Ван Сент (Duke Lawson), Yolie Canales (Angry Mother), Кэтрин Сью Янг (Bonnie Boom Boom), Steve Diasparra (Nazi General), Bruce Applegate (Doctor), Christopher Beacom (Fisherman), Chyenne Bostwick (Villager), Todd Carpenter (Local)

ОПИСАНИЕ:
В последние дни Второй Мировой секретный эксперимент по созданию специальных акул-убийц был закрыт и уничтожен. Но как выяснилось 60 лет спустя, эти твари спокойно пережили все катаклизмы, и вот-вот обрушатся на ближайшие побережья, чтобы сеять там панику и смерть. Главная проблема в том, как их уничтожить, ведь, по сути, они давно уже мертвы.


ТЕХ.ДАННЫЕ:
Качество: WEB-DLRip
Формат: AVI
Видео: XviD, 720x400 (16:9), 2121 kbps, 24 fps, 0,307 bpp
Аудио: AC3 / 2.0 / 48 kHz / 448 kbps /


General
Complete name : G:\Торенты\Sharkenstein.2016.P.WEB-DLRip.14OOMB_.avi
Format : AVI
Format/Info : Audio Video Interleave
File size : 1.37 GiB
Duration : 1 h 13 min
Overall bit rate : 2 643 kb/s
Writing application : VirtualDubMod 1.5.10.2 (build 2540/release)
Writing library : VirtualDubMod build 2540/release

Video
ID : 0
Format : MPEG-4 Visual
Format profile : Advanced Simple@L5
Format settings, BVOP : 2
Format settings, QPel : No
Format settings, GMC : No warppoints
Format settings, Matrix : Default (MPEG)
Codec ID : XVID
Codec ID/Hint : XviD
Duration : 1 h 13 min
Source duration : 29 min
Bit rate : 2 122 kb/s
Width : 720 pixels
Height : 400 pixels
Display aspect ratio : 16:9
Frame rate : 24.000 FPS
Color space : YUV
Chroma subsampling : 4:2:0
Bit depth : 8 bits
Scan type : Progressive
Compression mode : Lossy
Bits/(Pixel*Frame) : 0.307
Stream size : 448 MiB (32%)
Writing library : XviD 1.2.1 (UTC 2008-12-04)

Audio
ID : 1
Format : AC-3
Format/Info : Audio Coding 3
Mode extension : CM (complete main)
Format settings, Endianness : Big
Codec ID : 2000
Duration : 1 h 13 min
Source duration : 29 min
Bit rate mode : Constant
Bit rate : 448 kb/s
Channel(s) : 2 channels
Channel positions : Front: L R
Sampling rate : 48.0 kHz
Frame rate : 31.250 FPS (1536 spf)
Compression mode : Lossy
Stream size : 94.7 MiB (7%)
Alignment : Split accross interleaves
Interleave, duration : 42 ms (1.00 video frame)
Interleave, preload duration : 500 ms
Скриншоты:

© Оформление by .::Ворон::.
piratbit.org
!Ворон писал(а):

Имеется реклама от спонсора показа



Скачать Акула-Франкенштейн через торрент https://pic1.kartinco.top/images/61/ordi9.jpg Скачать фильм Акула-Франкенштейн через торрент бесплантно в хорошем качестве Е:В последние дни Второй Мировой секретный эксперимент по созданию специальных акул-убийц был закрыт и уничтожен. Но как выяснилось 60 лет ... 8.3 10 12
Торрент: Зарегистрирован [2016-10-13 20:29] · скачан: 111 раз
Статус: T временная
Размер: 1.37 GB
Как cкачать? Как скачать Акула-Франкенштейн через торрент | UTorrent

% Раздел Тема Автор DL S | L
T Фильмы 2016 [DVDrip, WEB-DLRip, HDrip] (DUB, MVO) [ 747 MB ] Акула-Франкенштейн / Sharkenstein [2016 WEB-DLRip] Любительский [многоголосый] Sherif Скачать
1 | 0

28-11-2019 20:33  

Отключить всю рекламу на сайте

13-10-2016 20:30 Акула-Франкенштейн Скачать торрент  



piratbit.org



14-10-2016 03:15 Акула-Франкенштейн Скачать торрент  

...чет боюсь не выдержу этого ужаса......после трейлера страшно!!!piratbit.org



14-10-2016 03:35 Акула-Франкенштейн Скачать торрент  

Вторая часть будет называться Килька-Франкенштейн piratbit.org



14-10-2016 03:46 Акула-Франкенштейн Скачать торрент  

б...я, ну и хрень piratbit.org



  Мат. Вуал-мат, выдал Ворон

14-10-2016 05:24 Акула-Франкенштейн Скачать торрент  

Трэшачоккк -с подвезли piratbit.org



14-10-2016 09:09 Акула-Франкенштейн Скачать торрент  

то что нужно.. получше охотников за приведениями 3 будет.. трэш рулит piratbit.org



14-10-2016 15:16 Акула-Франкенштейн Скачать торрент  

Userman4ik писал(а):

...чет боюсь не выдержу этого ужаса......после трейлера страшно!!!

Чёт я тоже ссуся =))).piratbit.org



14-10-2016 15:22 Акула-Франкенштейн Скачать торрент  

трейлера хватит пожалуй...)))piratbit.org



14-10-2016 17:07 Акула-Франкенштейн Скачать торрент  

Даже трейлер смотреть не буду piratbit.org



14-10-2016 17:48 Акула-Франкенштейн Скачать торрент  

боже какая графика а какая акула аватар плачет в старонкеpiratbit.org



14-10-2016 19:04 Акула-Франкенштейн Скачать торрент  

Ну чё - фильм 2016 года выбран!piratbit.org



    Дорогой пользователь! Огромная просьба, поблагодарите релизера, оцените раздачу и оставьте свои комментарий, если Вы скачали Акула-Франкенштейн через торрент бесплатно! Внесите свою лепту в развитие PiratBit!
    Комментировать посты могут только пользователи прошедшие не сложную регистрацию
    Показать сообщения:    

    Акула-Франкенштейн через торрент
    Скачать бесплатно Акула-Франкенштейн
    Акула-Франкенштейн скачать торрент
    Акула-Франкенштейн смотреть онлайн
    Cкачать фильм Акула-Франкенштейн бесплатно
    Акула-Франкенштейн скачать торрент в хорошем качестве
    Акула-Франкенштейн смотреть онлайн бесплатно в хорошем качестве


    Вы не можете начинать темы
    Вы не можете отвечать на сообщения
    Вы не можете редактировать свои сообщения
    Вы не можете удалять свои сообщения
    Вы не можете голосовать в опросах
    Вы не можете прикреплять файлы к сообщениям
    Вы можете скачивать файлы