1 сезон

3 сезон

iTunes

1

iTunes

DUB Netflix

iTunes

13

1 сезон

RePack

30

Deluxe

pack

Легкие деньги

ВАЖНО

ИГРА 18+

pack

RePack

MK11

RePack

jed

RePack

fifa19

RePack

RDR2

RePack

NEED FOR SPEED™ PAYBACK

4 сезон

9 сезон

Бесстыжие 9 сезон

Все сериалы

все сериалы на PB.wtf

RePack

FAR CRY 5

Anonymous, добрый день, мы не успеваем до 1 числа собрать деньги на оплату серверов, помогите нам пожалуйста в это трудное время. В качестве благодарности мы отключим Вам всю рекламу на сайте (укажите свой ник в строку Ваше имя)!

×
  
Magnet ссылка

И гаснет свет... / Lights Out (Дэвид Ф. Сандберг ) [2016, ужасы, триллер, BDRip-AVC от potroks] Dub [iTunes] piratbit.org

И гаснет свет... через торрент piratbit.org

Размер: 1.42 GB | Добавлен: 4 года 8 мес. назад | Торрент скачан:237 раз
Скачать  

17-10-2016 05:47 И гаснет свет... Скачать торрент  

И гаснет свет... / Lights Out

Год выпуска: 2016
Страна: США
Жанр: ужасы, триллер
Продолжительность: 01:20:56
Перевод: Дубляж [iTunes]
Субтитры: русские (полные + форс.)
Навигация по главам: есть
Режиссер: Дэвид Ф. Сандберг
В ролях:

Тереза Палмер (Rebecca), Гэбриел Бейтман (Martin), Александр ДиПерсиа (Bret), Билли Бёрк (Paul), Мария Белло (Sophie), Алисия Вела-Бэйли (Diana), Энди Ошо (Emma), Роландо Бойс (Officer Brian Andrews), Мария Расселл (Officer Gomez), Элизабет Пан (Nurse), Лотта Лостен (Esther), Амья Миллер (Young Rebecca)
Описание: Когда Ребекка покинула родной дом, она думала, что её детские страхи остались позади. Ребенком она никогда не была уверена, что реально, а что нет, когда гас свет, и теперь её младший брат Мартин переживает те же необъяснимые и ужасные события, которые когда-то испытывали на прочность её рассудок и угрожали её безопасности. Пугающее нечто, таинственным образом привязанное к их матери Софи, появилось вновь. Но на этот раз Ребекка подбирается к разгадке истины, и уже не остается сомнений в том, что их жизни в опасности, как только будет погашен свет.

Качество: BDRip-AVC
Формат: MKV
Видео: AVC, 1056x440 (2.40:1), 2134 kbps, 23,976 fps, 0,192 bpp
Аудио: русский / AC3 / 5.1 / 48 kHz / 384 kbps / 16 bit

Код:

General
Unique ID                                : 249590263754710822045818409529155574138 (0xBBC5561665F5705B9963ABC24A70D97A)
Complete name                            : F:\Ужасы\I.Gasnet.Svet.2016.RUS.BDRip.x264.-HELLYWOOD.mkv
Format                                   : Matroska
Format version                           : Version 4 / Version 2
File size                                : 1.42 GiB
Duration                                 : 1 h 20 min
Overall bit rate                         : 2 515 kb/s
Movie name                               : Lights Out (2016)
Encoded date                             : UTC 2016-10-16 20:58:00
Writing application                      : mkvmerge v5.9.0 ('On The Loose') built on Dec 15 2012 16:39:58
Writing library                          : libebml v1.3.0 + libmatroska v1.4.0

Video
ID                                       : 1
Format                                   : AVC
Format/Info                              : Advanced Video Codec
Format profile                           : High@L4.1
Format settings, CABAC                   : Yes
Format settings, ReFrames                : 10 frames
Codec ID                                 : V_MPEG4/ISO/AVC
Duration                                 : 1 h 20 min
Bit rate                                 : 2 134 kb/s
Width                                    : 1 056 pixels
Height                                   : 440 pixels
Display aspect ratio                     : 2.40:1
Frame rate mode                          : Constant
Frame rate                               : 23.976 FPS
Color space                              : YUV
Chroma subsampling                       : 4:2:0
Bit depth                                : 8 bits
Scan type                                : Progressive
Bits/(Pixel*Frame)                       : 0.192
Stream size                              : 1.18 GiB (83%)
Title                                    : potroks
Writing library                          : x264 core 146 r2538 121396c
Encoding settings                        : cabac=1 / ref=10 / deblock=1:-2:-2 / analyse=0x3:0x113 / me=umh / subme=11 / psy=1 / psy_rd=1.05:0.15 / mixed_ref=1 / me_range=48 / chroma_me=1 / trellis=2 / 8x8dct=1 / cqm=0 / deadzone=21,11 / fast_pskip=0 / chroma_qp_offset=-3 / threads=9 / lookahead_threads=2 / sliced_threads=0 / nr=0 / decimate=0 / interlaced=0 / bluray_compat=0 / constrained_intra=0 / bframes=11 / b_pyramid=2 / b_adapt=2 / b_bias=0 / direct=3 / weightb=1 / open_gop=0 / weightp=2 / keyint=240 / keyint_min=23 / scenecut=40 / intra_refresh=0 / rc_lookahead=60 / rc=2pass / mbtree=0 / bitrate=2134 / ratetol=1.0 / qcomp=0.70 / qpmin=0 / qpmax=69 / qpstep=4 / cplxblur=20.0 / qblur=0.5 / vbv_maxrate=14000 / vbv_bufsize=14000 / nal_hrd=none / filler=0 / ip_ratio=1.40 / pb_ratio=1.30 / aq=1:0.80
Language                                 : English
Default                                  : Yes
Forced                                   : No

Audio
ID                                       : 2
Format                                   : AC-3
Format/Info                              : Audio Coding 3
Mode extension                           : CM (complete main)
Format settings, Endianness              : Big
Codec ID                                 : A_AC3
Duration                                 : 1 h 20 min
Bit rate mode                            : Constant
Bit rate                                 : 384 kb/s
Channel(s)                               : 6 channels
Channel positions                        : Front: L C R, Side: L R, LFE
Sampling rate                            : 48.0 kHz
Frame rate                               : 31.250 FPS (1536 spf)
Compression mode                         : Lossy
Stream size                              : 222 MiB (15%)
Title                                    : Dub | DD 5.1 @ 384 kbps - iTunes
Language                                 : Russian
Default                                  : Yes
Forced                                   : No

Text #1
ID                                       : 3
Format                                   : UTF-8
Codec ID                                 : S_TEXT/UTF8
Codec ID/Info                            : UTF-8 Plain Text
Title                                    : Forced
Language                                 : Russian
Default                                  : Yes
Forced                                   : No

Text #2
ID                                       : 4
Format                                   : UTF-8
Codec ID                                 : S_TEXT/UTF8
Codec ID/Info                            : UTF-8 Plain Text
Title                                    : iTunes
Language                                 : Russian
Default                                  : No
Forced                                   : No

Menu
00:00:00.000                             : en:(01)00:00:00:000
00:10:01.558                             : en:(02)00:10:01:558
00:21:07.348                             : en:(03)00:21:07:348
00:30:12.935                             : en:(04)00:30:12:935
00:40:57.663                             : en:(05)00:40:57:663
00:50:38.284                             : en:(06)00:50:38:284
00:58:43.603                             : en:(07)00:58:43:603
01:09:54.189                             : en:(08)01:09:54:189
01:16:21.283                             : en:(09)01:16:21:283
01:20:56.893                             : en:(10)01:20:56:893

piratbit.org



Скачать И гаснет свет... через торрент http://i82.fastpic.ru/big/2016/1017/46/5be88af5384866fddbd649a24b9afb46.png Скачать фильм И гаснет свет... через торрент бесплантно в хорошем качестве Описание: Когда Ребекка покинула родной дом, она думала, что её детские страхи остались позади. Ребенком она никогда не была уверена, что ... 10 10 1
Info! Золотая раздача, скачанное не засчитывается.
Торрент: Зарегистрирован [2016-10-17 05:47] · скачан: 237 раз
Статус: √ проверено
Размер: 1.42 GB
Как cкачать? Как скачать И гаснет свет... через торрент | UTorrent

% Раздел Тема Автор DL S | L
Фильмы [HD 720p, 1080p] (Хороший звук DUB, MVO) [ 11.46 GB ] И гаснет свет... / Lights Out [2016 BDRip 1080p] - [ Blu-ray CEE] -Lexx- Скачать
1 | 0
Фильмы (WEB-DL 720p, 1080p) [ 3.04 GB ] И гаснет свет... / Lights Out [2016 WEB-DL 1080p] - -Lexx- Скачать
1 | 0
Фильмы (Blu-ray, BD-Remux, HDDVD) [ 26.46 GB ] И гаснет свет... / Lights Out [2016 Blu-Ray CEE] Russian Mafia Скачать
1 | 0
Фильмы (Blu-ray, BD-Remux, HDDVD) [ 20.53 GB ] И гаснет свет... / Lights Out [2016 BDRemux 1080p от ExKinoRay] Russian Mafia Скачать
1 | 0
Фильмы 2016 [DVDrip, WEB-DLRip, HDrip] (DUB, MVO) [ 1.46 GB ] И гаснет свет... / Lights Out [2016 BDRip] - [] Twi7ter Скачать
1 | 0
Фильмы 2016 [DVDrip, WEB-DLRip, HDrip] (DUB, MVO) [ 2.14 GB ] И гаснет свет... / Lights Out [2016 BDRip-AVC] Dub potroks Скачать
1 | 0
Фильмы [HD 720p, 1080p] (Хороший звук DUB, MVO) [ 3.71 GB ] И гаснет свет... / Lights Out [2016 BDRip 720p] Dub potroks Скачать
1 | 0

28-11-2019 20:33  

Отключить всю рекламу на сайте

    Дорогой пользователь! Огромная просьба, поблагодарите релизера, оцените раздачу и оставьте свои комментарий, если Вы скачали И гаснет свет... через торрент бесплатно! Внесите свою лепту в развитие PiratBit!
    Комментировать посты могут только пользователи прошедшие не сложную регистрацию
    Показать сообщения:    

    И гаснет свет... через торрент
    Скачать бесплатно И гаснет свет...
    И гаснет свет... скачать торрент
    И гаснет свет... смотреть онлайн
    Cкачать фильм И гаснет свет... бесплатно
    И гаснет свет... скачать торрент в хорошем качестве
    И гаснет свет... смотреть онлайн бесплатно в хорошем качестве


    Вы не можете начинать темы
    Вы не можете отвечать на сообщения
    Вы не можете редактировать свои сообщения
    Вы не можете удалять свои сообщения
    Вы не можете голосовать в опросах
    Вы не можете прикреплять файлы к сообщениям
    Вы можете скачивать файлы