1 сезон

3 сезон

iTunes

1

iTunes

DUB Netflix

iTunes

13

1 сезон

RePack

30

Deluxe

pack

Легкие деньги

ВАЖНО

ИГРА 18+

pack

RePack

MK11

RePack

jed

RePack

fifa19

RePack

RDR2

RePack

NEED FOR SPEED™ PAYBACK

4 сезон

9 сезон

Бесстыжие 9 сезон

Все сериалы

все сериалы на PB.wtf

RePack

FAR CRY 5

Anonymous, добрый день, мы не успеваем до 1 числа собрать деньги на оплату серверов, помогите нам пожалуйста в это трудное время. В качестве благодарности мы отключим Вам всю рекламу на сайте (укажите свой ник в строку Ваше имя)!

×
  
Magnet ссылка

Коммуна / Kollektivet (Томас Винтерберг / Thomas Vinterberg) [2016, Дания, Швеция, Нидерланды, драма, BDRip-AVC от sokol_ok] Dub [Лицензия] piratbit.org

Коммуна через торрент piratbit.org

Раздают: 1 [ 0 KB/s ]
Размер: 2.18 GB | Добавлен: 4 года 7 мес. назад | Торрент скачан:71 раз
Скачать  

19-10-2016 11:05 Коммуна Скачать торрент  

Коммуна
Kollektivet


Страна: Дания, Швеция, Нидерланды
Жанр: драма

Год выпуска: 2016
Продолжительность: 01:51:42

Перевод: Профессиональный (полное дублирование) [DVD R5]
Cубтитры: русские (ass, srt), английские, датские
Оригинальная аудиодорожка: Датский

Режиссер: Томас Винтерберг / Thomas Vinterberg

В ролях: Ульрих Томсен, Фарес Фарес, Трине Дюрхольм, Хелена Рейнгорд Ньюманн, Джули Аньет Ванг, Ларс Ранте, Марта Софи Вольстром Хансен, Мэдс Ретер, Оле Дюпон, Маунус Миллан, Адам Фишер, Энн Грай Хенингсен

Описание:
В огромной вилле, расположенной в фешенебельном районе Копенгагена, Эрик и его жена Анна, воплощая давнюю мечту, создают коммуну близких по духу людей, готовых жить под одной крышей. Общие интересы, беседы, вечеринки полны эйфории и дарят ощущение подлинного единства. До тех пор, пока Эрик не приводит в дом свою новую возлюбленную...



Релиз:

Автор рипа: stalkerok

Сэмпл

Качество видео: BDRip-AVC [Kollektivet (2016) 1080p BD-Remux HDCLUB]
Формат видео: MKV
Видео кодек: AVC
Аудио кодек: AC3
Видео: 1899 Кбит/сек, 1104*470 (2,35:1), в 24,000 кадра/сек, AVC
Аудио #1: русский, 448 Кбит/сек, 48 КГц, 16 бит, 5.1, AC3
Аудио #2: датский, 448 Кбит/сек, 48 КГц, 16 бит, 5.1, AC3
Навигация по главам: есть

x264 [info]: frame I:1136 Avg QP:15.92 size: 61668
x264 [info]: frame P:30959 Avg QP:18.53 size: 20121
x264 [info]: frame B:128763 Avg QP:20.02 size: 6972

Общее
Уникальный идентификатор : 208229200680305811131635111559849978416 (0x9CA77C3BDFB2B019A9AFB33943A62A30)
Полное имя : M:\3Rips\Kollektivet\Kollektivet.2016.BDRip-AVC.Dub.2.18Gb.stalkerok.new-team.mkv
Формат : Matroska
Версия формата : Version 4 / Version 2
Размер файла : 2,18 Гбайт
Продолжительность : 1 ч. 51 м.
Общий поток : 2797 Кбит/сек
Название фильма : Kollektivet (2016) (Rip by stalkerok)
Дата кодирования : UTC 2016-10-19 10:44:26
Программа кодирования : mkvmerge v8.6.1 ('Flying') 64bit
Библиотека кодирования : libebml v1.3.3 + libmatroska v1.4.4

Видео
Идентификатор : 1
Формат : AVC
Формат/Информация : Advanced Video Codec
Профиль формата : High@L4.1
Параметр CABAC формата : Да
Параметр ReFrames формата : 14 кадров
Идентификатор кодека : V_MPEG4/ISO/AVC
Продолжительность : 1 ч. 51 м.
Битрейт : 1899 Кбит/сек
Ширина : 1104 пикселя
Высота : 470 пикселей
Соотношение сторон : 2,35:1
Режим частоты кадров : Постоянный
Частота кадров : 24,000 кадра/сек
Цветовое пространство : YUV
Субдискретизация насыщенности : 4:2:0
Битовая глубина : 8 бит
Тип развёртки : Прогрессивная
Бит/(Пиксели*Кадры) : 0.152
Размер потока : 1,48 Гбайт (68%)
Заголовок : Kollektivet (2016) (Rip by stalkerok)
Библиотека кодирования : x264 core 148 r2705+54 9f484c1 t_mod_Custom [8-bit@all X86_64]
Настройки программы : cabac=1 / ref=14 / deblock=1:-3:-2 / analyse=0x3:0x133 / me=umh / subme=10 / psy=1 / fade_compensate=0.00 / psy_rd=1.00:0.00 / mixed_ref=1 / me_range=32 / chroma_me=1 / trellis=2 / 8x8dct=1 / cqm=0 / deadzone=21,11 / fast_pskip=0 / chroma_qp_offset=-2 / threads=12 / lookahead_threads=3 / sliced_threads=0 / nr=0 / decimate=0 / interlaced=0 / bluray_compat=0 / constrained_intra=0 / fgo=0 / bframes=14 / b_pyramid=2 / b_adapt=2 / b_bias=0 / direct=3 / weightb=1 / open_gop=0 / weightp=2 / keyint=240 / keyint_min=23 / scenecut=40 / intra_refresh=0 / rc_lookahead=60 / rc=2pass / mbtree=0 / bitrate=1899 / ratetol=1.0 / qcomp=0.65 / qpmin=0:0:0 / qpmax=69:69:69 / qpstep=4 / cplxblur=20.0 / qblur=0.5 / vbv_maxrate=50000 / vbv_bufsize=62500 / nal_hrd=none / filler=0 / ip_ratio=1.35 / pb_ratio=1.25 / aq=3:0.80 / aq-sensitivity=10.00 / aq-factor=1.00:1.00:1.00 / aq2=0 / aq3=0
Default : Да
Forced : Нет

Аудио #1
Идентификатор : 2
Формат : AC-3
Формат/Информация : Audio Coding 3
Расширение режима : CM (complete main)
Параметр Endianness формата : Big
Идентификатор кодека : A_AC3
Продолжительность : 1 ч. 51 м.
Вид битрейта : Постоянный
Битрейт : 448 Кбит/сек
Каналы : 6 каналов
Расположение каналов : Front: L C R, Side: L R, LFE
Частота : 48,0 КГц
Частота кадров : 31,250 кадров/сек (1536 spf)
Метод сжатия : С потерями
Размер потока : 358 Мбайт (16%)
Заголовок : AC3 5.1 @ 448 kbps - Дубляж, Позитив по заказу РР, DVD
Язык : Russian
Default : Да
Forced : Нет

Аудио #2
Идентификатор : 3
Формат : AC-3
Формат/Информация : Audio Coding 3
Расширение режима : CM (complete main)
Параметр Endianness формата : Big
Идентификатор кодека : A_AC3
Продолжительность : 1 ч. 51 м.
Вид битрейта : Постоянный
Битрейт : 448 Кбит/сек
Каналы : 6 каналов
Расположение каналов : Front: L C R, Side: L R, LFE
Частота : 48,0 КГц
Частота кадров : 31,250 кадров/сек (1536 spf)
Метод сжатия : С потерями
Размер потока : 358 Мбайт (16%)
Язык : Danish
Default : Нет
Forced : Нет

Текст #1
Идентификатор : 4
Формат : ASS
Идентификатор кодека : S_TEXT/ASS
Идентификатор кодека/Информация : Advanced Sub Station Alpha
Продолжительность : 1 ч. 45 м.
Битрейт : 133 бит/сек
Count of elements : 1318
Метод сжатия : Без потерь
Размер потока : 103 Кбайт (0%)
Заголовок : ASS
Язык : Russian
Default : Нет
Forced : Нет

Текст #2
Идентификатор : 5
Формат : UTF-8
Идентификатор кодека : S_TEXT/UTF8
Идентификатор кодека/Информация : UTF-8 Plain Text
Продолжительность : 1 ч. 45 м.
Битрейт : 96 бит/сек
Count of elements : 1318
Размер потока : 74,8 Кбайт (0%)
Язык : Russian
Default : Нет
Forced : Нет

Текст #3
Идентификатор : 6
Формат : UTF-8
Идентификатор кодека : S_TEXT/UTF8
Идентификатор кодека/Информация : UTF-8 Plain Text
Продолжительность : 1 ч. 47 м.
Битрейт : 48 бит/сек
Count of elements : 1006
Размер потока : 38,2 Кбайт (0%)
Язык : English
Default : Нет
Forced : Нет

Текст #4
Идентификатор : 7
Формат : UTF-8
Идентификатор кодека : S_TEXT/UTF8
Идентификатор кодека/Информация : UTF-8 Plain Text
Продолжительность : 1 ч. 50 м.
Битрейт : 53 бит/сек
Count of elements : 1006
Размер потока : 43,6 Кбайт (0%)
Язык : Danish
Default : Нет
Forced : Нет

Меню
00:00:00.000 : en:Chapter 1
00:09:59.540 : en:Chapter 2
00:20:00.000 : en:Chapter 3
00:29:59.958 : en:Chapter 4
00:39:59.791 : en:Chapter 5
00:49:59.541 : en:Chapter 6
00:59:59.625 : en:Chapter 7
01:09:59.582 : en:Chapter 8
01:19:59.791 : en:Chapter 9
01:29:59.582 : en:Chapter 10
01:40:00.000 : en:Chapter 11
piratbit.org



Скачать Коммуна через торрент http://i72.fastpic.ru/big/2015/0531/46/68ef8a2783b58e5344cc30bbd3f1b046.png Скачать фильм Коммуна через торрент бесплантно в хорошем качестве Описание:В огромной вилле, расположенной в фешенебельном районе Копенгагена, Эрик и его жена Анна, воплощая давнюю мечту, создают коммуну ... 8.5 10 2
Info! Золотая раздача, скачанное не засчитывается.
Торрент: Зарегистрирован [2016-10-19 11:05] · скачан: 71 раз
Статус: √ проверено
Размер: 2.18 GB
Как cкачать? Как скачать Коммуна через торрент | UTorrent

% Раздел Тема Автор DL S | L
Фильмы 2016 [DVDrip, WEB-DLRip, HDrip] (DUB, MVO) [ 2.15 GB ] Коммуна / Kollektivet [2016 HDRip " R5"] coc900 Скачать
1 | 0
Фильмы 2016 [DVDrip, WEB-DLRip, HDrip] (DUB, MVO) [ 746 MB ] Коммуна / Kollektivet [2016 Дания Швеция Нидерланды BDRip-AVC от sokol_ok] sokol_ok Скачать
2 | 0
Фильмы 2016 [DVDrip, WEB-DLRip, HDrip] (DUB, MVO) [ 1.46 GB ] Коммуна / Kollektivet [2016 Дания Швеция Нидерланды BDRip-AVC от sokol_ok] sokol_ok Скачать
2 | 0
Фильмы 2016 [DVDrip, WEB-DLRip, HDrip] (DUB, MVO) [ 1.46 GB ] Коммуна / Kollektivet [2016 HDRip] DUB [] bober100 Скачать
1 | 0
Фильмы 2016 [DVDrip, WEB-DLRip, HDrip] (DUB, MVO) [ 2.05 GB ] Коммуна / Kollektivet [2016 HDRip] DUB [] bober100 Скачать
1 | 0

28-11-2019 20:33  

Отключить всю рекламу на сайте

    Дорогой пользователь! Огромная просьба, поблагодарите релизера, оцените раздачу и оставьте свои комментарий, если Вы скачали Коммуна через торрент бесплатно! Внесите свою лепту в развитие PiratBit!
    Комментировать посты могут только пользователи прошедшие не сложную регистрацию
    Показать сообщения:    

    Коммуна через торрент
    Скачать бесплатно Коммуна
    Коммуна скачать торрент
    Коммуна смотреть онлайн
    Cкачать фильм Коммуна бесплатно
    Коммуна скачать торрент в хорошем качестве
    Коммуна смотреть онлайн бесплатно в хорошем качестве


    Вы не можете начинать темы
    Вы не можете отвечать на сообщения
    Вы не можете редактировать свои сообщения
    Вы не можете удалять свои сообщения
    Вы не можете голосовать в опросах
    Вы не можете прикреплять файлы к сообщениям
    Вы можете скачивать файлы