1 сезон

3 сезон

iTunes

1

iTunes

DUB Netflix

iTunes

13

1 сезон

RePack

30

Deluxe

pack

Легкие деньги

ВАЖНО

ИГРА 18+

pack

RePack

MK11

RePack

jed

RePack

fifa19

RePack

RDR2

RePack

NEED FOR SPEED™ PAYBACK

4 сезон

9 сезон

Бесстыжие 9 сезон

Все сериалы

все сериалы на PB.wtf

RePack

FAR CRY 5

Anonymous, добрый день, мы не успеваем до 1 числа собрать деньги на оплату серверов, помогите нам пожалуйста в это трудное время. В качестве благодарности мы отключим Вам всю рекламу на сайте (укажите свой ник в строку Ваше имя)!

×
  
Magnet ссылка

Клетка / Caged No More (Лиза Арнольд) [2016 г., боевик, триллер, драма, DVDRip] piratbit.org

Клетка через торрент piratbit.org

Размер: 1.37 GB | Добавлен: 4 года 8 мес. назад | Торрент скачан:189 раз
Скачать  

19-10-2016 22:31 Клетка Скачать торрент  

Клетка / Caged No MoreГод выпуска: 2016
Страна: США, Греция
Жанр: боевик, триллер, драма
Продолжительность: 01:37:31
Перевод: Любительский (многоголосый)
Субтитры: отсутствуют

Режиссер: Лиза Арнольд

Бюджет: $114 959
Премьера в мире: 22 января 2016

Присутствует Реклама!!!
rating

В ролях: Мэдисон Де Ла Гарза, Кевин Сорбо, Синтия Гибб, Лоретта Дивайн, Кэссиди Гиффорд, Дебра Уилсон, Алан Пауэлл, Кристос Василопулос, Даллас Ловато, Эмилия Грейвз

Описание: Это история бабушки, которая идет на отчаянные поиски двух своих внучек, что были похищены их отцом. Во время поисков бабушка узнает, что девочки проданы на границу для секс-рабства. Помогает ей в этом дядя девочек, местный уважаемый филантроп Ричард и его сын Вил, бывший спецназовец. Глобальные поиски начинаются и родственники не остановятся, пока не найдут несчетных детей и не вернут их домой.

Качество: DVDRip
Формат: AVI
Видео кодек: XviD
Аудио кодек: AC3
Видео: 720x400 , 23.976 fps, XviD build 50 ~1613 Kbps avg, 0.23 bit/pixel
Аудио#1: 48 kHz, AC3 Dolby Digital, 2/0 (L,R) ch, ~384 kbps
скриншот  скриншот  скриншот  скриншот  скриншот  

General
Complete name : E:\Клетка.2016.DVDRip.avi
Format : AVI
Format/Info : Audio Video Interleave
File size : 1.37 GiB
Duration : 1h 37mn
Overall bit rate : 2 006 Kbps
Writing application : VirtualDubMod 1.5.10.2 (build 2540/release)
Writing library : VirtualDubMod build 2540/release

Video
ID : 0
Format : MPEG-4 Visual
Format profile : Advanced Simple@L5
Format settings, BVOP : 2
Format settings, QPel : No
Format settings, GMC : No warppoints
Format settings, Matrix : Custom
Codec ID : XVID
Codec ID/Hint : XviD
Duration : 1h 37mn
Bit rate : 1 613 Kbps
Width : 720 pixels
Height : 400 pixels
Display aspect ratio : 16:9
Frame rate : 23.976 (24000/1001) fps
Color space : YUV
Chroma subsampling : 4:2:0
Bit depth : 8 bits
Scan type : Progressive
Compression mode : Lossy
Bits/(Pixel*Frame) : 0.234
Stream size : 1.10 GiB (80%)
Writing library : XviD 1.2.1 (UTC 2008-12-04)

Audio
ID : 1
Format : AC-3
Format/Info : Audio Coding 3
Mode extension : CM (complete main)
Format settings, Endianness : Big
Codec ID : 2000
Duration : 1h 37mn
Bit rate mode : Constant
Bit rate : 384 Kbps
Channel(s) : 2 channels
Channel positions : Front: L R
Sampling rate : 48.0 KHz
Frame rate : 31.250 fps (1536 spf)
Compression mode : Lossy
Stream size : 268 MiB (19%)
Alignment : Split accross interleaves
Interleave, duration : 42 ms (1.00 video frame)
Interleave, preload duratio : 500 ms

piratbit.org



Скачать Клетка через торрент http://s017.radikal.ru/i429/1610/b2/df9f88bb242c.jpg Скачать фильм Клетка через торрент бесплантно в хорошем качестве Описание: Это история бабушки, которая идет на отчаянные поиски двух своих внучек, что были похищены их отцом. Во время поисков бабушка ... 8.8 10 8
Торрент: Зарегистрирован [2016-10-19 22:31] · скачан: 189 раз
Статус: T временная
Размер: 1.37 GB
Как cкачать? Как скачать Клетка через торрент | UTorrent

28-11-2019 20:33  

Отключить всю рекламу на сайте

21-10-2016 00:26 Клетка Скачать торрент  

Мать твою, Геркал... Время, остановись(piratbit.org



    Дорогой пользователь! Огромная просьба, поблагодарите релизера, оцените раздачу и оставьте свои комментарий, если Вы скачали Клетка через торрент бесплатно! Внесите свою лепту в развитие PiratBit!
    Комментировать посты могут только пользователи прошедшие не сложную регистрацию
    Показать сообщения:    

    Клетка через торрент
    Скачать бесплатно Клетка
    Клетка скачать торрент
    Клетка смотреть онлайн
    Cкачать фильм Клетка бесплатно
    Клетка скачать торрент в хорошем качестве
    Клетка смотреть онлайн бесплатно в хорошем качестве


    Вы не можете начинать темы
    Вы не можете отвечать на сообщения
    Вы не можете редактировать свои сообщения
    Вы не можете удалять свои сообщения
    Вы не можете голосовать в опросах
    Вы не можете прикреплять файлы к сообщениям
    Вы можете скачивать файлы