1 сезон

3 сезон

iTunes

1

iTunes

DUB Netflix

iTunes

13

1 сезон

RePack

30

Deluxe

pack

Легкие деньги

ВАЖНО

ИГРА 18+

pack

RePack

MK11

RePack

jed

RePack

fifa19

RePack

RDR2

RePack

NEED FOR SPEED™ PAYBACK

4 сезон

9 сезон

Бесстыжие 9 сезон

Все сериалы

все сериалы на PB.wtf

RePack

FAR CRY 5

Anonymous, добрый день, мы не успеваем до 1 числа собрать деньги на оплату серверов, помогите нам пожалуйста в это трудное время. В качестве благодарности мы отключим Вам всю рекламу на сайте (укажите свой ник в строку Ваше имя)!

×
  
Magnet ссылка

Светская жизнь / Café Society (Вуди Аллен) [2016, драма, мелодрама, комедия, BDRip-AVC от potroks] Dub [iTunes] piratbit.org

Светская жизнь через торрент piratbit.org

Размер: 1.42 GB | Добавлен: 4 года 7 мес. назад | Торрент скачан:269 раз
Скачать  

20-10-2016 17:16 Светская жизнь Скачать торрент  

Светская жизнь / Café Society

Год выпуска: 2016
Страна: США / FilmNation Entertainment, Gravier Productions, Perdido Productions
Жанр: драма, мелодрама, комедия
Продолжительность: 01:36:05
Перевод: Дубляж [iTunes]
Навигация по главам: есть
Режиссер: Вуди Аллен
В ролях:

Дженни Берлин (Rose Dorfman), Стив Карелл (Phil Stern), Джесси Айзенберг (Bobby), Кристен Стюарт (Vonnie), Блейк Лайвли (Veronica), Паркер Поузи (Rad), Кори Столл (Ben Dorfman), Кен Стотт (Marty Dorfman), Анна Кэмп (Candy), Пол Шнайдер (Steve), Шерил Ли (Karen Stern), Тони Сирико (Vito)
Описание: 1930-е годы. Молодой человек приезжает из Нью-Йорка в Голливуд в надежде найти работу в киноиндустрии. В Лос-Анджелесе он влюбляется и обнаруживает себя в самом центре водоворота бурной светской жизни и событий, определивших дух того времени.

Качество: BDRip-AVC
Формат: MKV
Видео: AVC, 992x496 (2.000), 1728 kbps, 23,976 fps, 0,146 bpp
Аудио: русский / AC3 / 5.1 / 48 kHz / 384 kbps / 16 bit
General
Unique ID : 246165572743467190862580714262431889076 (0xB931C3C8C75015928B576ACF68B976B4)
Complete name : F:\Драма\Svetskaya.Zhyzn.2016.RUS.BDRip.x264.-HELLYWOOD.mkv
Format : Matroska
Format version : Version 4 / Version 2
File size : 1.42 GiB
Duration : 1 h 36 min
Overall bit rate : 2 114 kb/s
Movie name : Cafe Society (2016)
Encoded date : UTC 2016-10-19 05:39:49
Writing application : mkvmerge v5.9.0 ('On The Loose') built on Dec 15 2012 16:39:58
Writing library : libebml v1.3.0 + libmatroska v1.4.0

Video
ID : 1
Format : AVC
Format/Info : Advanced Video Codec
Format profile : High@L4.1
Format settings, CABAC : Yes
Format settings, ReFrames : 12 frames
Codec ID : V_MPEG4/ISO/AVC
Duration : 1 h 36 min
Bit rate : 1 728 kb/s
Width : 992 pixels
Height : 496 pixels
Display aspect ratio : 2.000
Frame rate mode : Constant
Frame rate : 23.976 FPS
Color space : YUV
Chroma subsampling : 4:2:0
Bit depth : 8 bits
Scan type : Progressive
Bits/(Pixel*Frame) : 0.146
Stream size : 1.13 GiB (80%)
Title : potroks
Writing library : x264 core 146 r2538 121396c
Encoding settings : cabac=1 / ref=12 / deblock=1:-2:-2 / analyse=0x3:0x113 / me=umh / subme=11 / psy=1 / psy_rd=1.05:0.05 / mixed_ref=1 / me_range=48 / chroma_me=1 / trellis=2 / 8x8dct=1 / cqm=0 / deadzone=21,11 / fast_pskip=0 / chroma_qp_offset=-3 / threads=9 / lookahead_threads=2 / sliced_threads=0 / nr=0 / decimate=0 / interlaced=0 / bluray_compat=0 / constrained_intra=0 / bframes=13 / b_pyramid=2 / b_adapt=2 / b_bias=0 / direct=3 / weightb=1 / open_gop=0 / weightp=2 / keyint=240 / keyint_min=23 / scenecut=40 / intra_refresh=0 / rc_lookahead=60 / rc=2pass / mbtree=0 / bitrate=1728 / ratetol=1.0 / qcomp=0.70 / qpmin=0 / qpmax=69 / qpstep=4 / cplxblur=20.0 / qblur=0.5 / vbv_maxrate=14000 / vbv_bufsize=14000 / nal_hrd=none / filler=0 / ip_ratio=1.40 / pb_ratio=1.30 / aq=1:0.80
Language : English
Default : Yes
Forced : No

Audio
ID : 2
Format : AC-3
Format/Info : Audio Coding 3
Mode extension : CM (complete main)
Format settings, Endianness : Big
Codec ID : A_AC3
Duration : 1 h 36 min
Bit rate mode : Constant
Bit rate : 384 kb/s
Channel(s) : 6 channels
Channel positions : Front: L C R, Side: L R, LFE
Sampling rate : 48.0 kHz
Frame rate : 31.250 FPS (1536 spf)
Compression mode : Lossy
Stream size : 264 MiB (18%)
Title : Dub | DD5.1 @ 384 kbps - iTunes
Language : Russian
Default : Yes
Forced : No

Menu
00:00:00.000 : en:(01)00:00:00:000
00:08:35.847 : en:(02)00:08:35:847
00:16:40.164 : en:(03)00:16:40:164
00:26:28.627 : en:(04)00:26:28:627
00:32:30.990 : en:(05)00:32:30:990
00:43:12.505 : en:(06)00:43:12:505
00:54:03.864 : en:(07)00:54:03:864
01:02:38.755 : en:(08)01:02:38:755
01:10:05.658 : en:(09)01:10:05:658
01:14:41.100 : en:(10)01:14:41:100
01:20:46.173 : en:(11)01:20:46:173
01:31:57.094 : en:(12)01:31:57:094
01:36:05.509 : en:(13)01:36:05:509
piratbit.org



Скачать Светская жизнь через торрент http://i83.fastpic.ru/big/2016/1020/c7/04afd252edc4495eee1df082106df8c7.png Скачать фильм Светская жизнь через торрент бесплантно в хорошем качестве Описание: 1930-е годы. Молодой человек приезжает из Нью-Йорка в Голливуд в надежде найти работу в киноиндустрии. В Лос-Анджелесе он ... 10 10 7
Info! Золотая раздача, скачанное не засчитывается.
Торрент: Зарегистрирован [2016-10-20 17:16] · скачан: 269 раз
Статус: √ проверено
Размер: 1.42 GB
Как cкачать? Как скачать Светская жизнь через торрент | UTorrent

% Раздел Тема Автор DL S | L
R.G. Resident & PiratVoice - Фильмы, Видео [ 2.38 GB ] Светская жизнь / Café Society [2016 BDRip-AVC от R.G. Resident] - [] -Lexx- Скачать
1 | 0
Фильмы [HD 720p, 1080p] (Хороший звук DUB, MVO) [ 9.08 GB ] Светская жизнь / Café Society [2016 BDRip 1080p ] - Ворон Скачать
1 | 0
Фильмы 2016 [DVDrip, WEB-DLRip, HDrip] (DUB, MVO) [ 1.46 GB ] Светская жизнь / Café Society [2016 BDRip] - [] Twi7ter Скачать
1 | 0
Фильмы (Blu-ray, BD-Remux, HDDVD) [ 17.09 GB ] Светская жизнь / Café Society [2016 Blu-ray disc 1080p] [RUS] Dub voovaz Скачать
1 | 0
Фильмы [HD 720p, 1080p] (Хороший звук DUB, MVO) [ 4.91 GB ] Светская жизнь / Café Society [2016 BDRip 720p] bober100 Скачать
1 | 0
T Релизы по Парсеру [Игры, Сериалы и Фильмы и другое...] [ 698 MB ] Светская жизнь / Café Society [2016 HDRip ] Kirya2002 Скачать
1 | 0
Фильмы 2016 [DVDrip, WEB-DLRip, HDrip] (DUB, MVO) [ 1.37 GB ] Светская жизнь / Café Society [2016 HDRip ] - Ворон Скачать
1 | 0

28-11-2019 20:33  

Отключить всю рекламу на сайте

    Дорогой пользователь! Огромная просьба, поблагодарите релизера, оцените раздачу и оставьте свои комментарий, если Вы скачали Светская жизнь через торрент бесплатно! Внесите свою лепту в развитие PiratBit!
    Комментировать посты могут только пользователи прошедшие не сложную регистрацию
    Показать сообщения:    

    Светская жизнь через торрент
    Скачать бесплатно Светская жизнь
    Светская жизнь скачать торрент
    Светская жизнь смотреть онлайн
    Cкачать фильм Светская жизнь бесплатно
    Светская жизнь скачать торрент в хорошем качестве
    Светская жизнь смотреть онлайн бесплатно в хорошем качестве


    Вы не можете начинать темы
    Вы не можете отвечать на сообщения
    Вы не можете редактировать свои сообщения
    Вы не можете удалять свои сообщения
    Вы не можете голосовать в опросах
    Вы не можете прикреплять файлы к сообщениям
    Вы можете скачивать файлы