1 сезон

3 сезон

iTunes

1

iTunes

DUB Netflix

iTunes

13

1 сезон

RePack

30

Deluxe

pack

Легкие деньги

ВАЖНО

ИГРА 18+

pack

RePack

MK11

RePack

jed

RePack

fifa19

RePack

RDR2

RePack

NEED FOR SPEED™ PAYBACK

4 сезон

9 сезон

Бесстыжие 9 сезон

Все сериалы

все сериалы на PB.wtf

RePack

FAR CRY 5

Anonymous, добрый вечер, мы не успеваем до 1 числа собрать деньги на оплату серверов, помогите нам пожалуйста в это трудное время. В качестве благодарности мы отключим Вам всю рекламу на сайте (укажите свой ник в строку Ваше имя)!

×
  
Magnet ссылка

Такой же предатель, как и мы / Our Kind of Traitor (Сюзанна Уайт) [2016, триллер, BDRip-AVC от potroks] MVO [iTunes] piratbit.org

Такой же предатель, как и мы через торрент piratbit.org

Размер: 1.41 GB | Добавлен: 4 года 8 мес. назад | Торрент скачан:298 раз
Скачать  

21-10-2016 09:20 Такой же предатель, как и мы Скачать торрент  

Такой же предатель, как и мы / Our Kind of Traitor

Год выпуска: 2016
Страна: Великобритания, Франция / Amazon Prime Instant Video, Film4, StudioCanal...
Жанр: триллер
Продолжительность: 01:47:35
Перевод: Профессиональный (многоголосый) [iTunes]
Навигация по главам: есть
Режиссер: Сюзанна Уайт
В ролях:

Карлос Акоста (Ballet Dancer), Радивойе Буквич (Misha), Стеллан Скарсгард (Dima), Мария Фомина (Anna), Доля Гавански (Olga), Григорий Добрыгин (The Prince), Велибор Топич (Emilio Del Oro), Павел Шайда (Blue Eyed Killer), Юэн МакГрегор (Perry), Наоми Харрис (Gail Perkins), Алек Утгофф (Niki), Марек Оравек (Andrei)
Описание: Молодая английская пара, отдыхая в Марокко, заводит знакомство с русским олигархом, отмывающим деньги для преступных группировок, чьи лидеры вот-вот спишут его со счетов. Чтобы спасти себя и семью, он предлагает разведке Великобритании море ценных сведений в обмен на защиту и покровительство. Его последняя отчаянная надежда - на «английских джентльменов», которые всегда «играют честно»...

Качество: BDRip-AVC
Формат: MKV
Видео: AVC, 960x402 (2.40:1), 1496 kbps, 24 fps, 0,162 bpp
Аудио: русский / AC3 / 5.1 / 48 kHz / 384 kbps / 16 bit
General
Unique ID : 250946569781510261874404451328980694012 (0xBCCA8D2332FEC3409EBEDBDF7B5C33FC)
Complete name : F:\Триллер\Takoy.Zhe.Predatel.Kak.i.My.2016.RUS.BDRip.x264.-HELLYWOOD.mkv
Format : Matroska
Format version : Version 4 / Version 2
File size : 1.41 GiB
Duration : 1 h 47 min
Overall bit rate : 1 882 kb/s
Movie name : Our Kind of Traitor (2016)
Encoded date : UTC 2016-10-20 13:54:47
Writing application : mkvmerge v5.9.0 ('On The Loose') built on Dec 15 2012 16:39:58
Writing library : libebml v1.3.0 + libmatroska v1.4.0

Video
ID : 1
Format : AVC
Format/Info : Advanced Video Codec
Format profile : High@L4.1
Format settings, CABAC : Yes
Format settings, ReFrames : 12 frames
Codec ID : V_MPEG4/ISO/AVC
Duration : 1 h 47 min
Bit rate : 1 496 kb/s
Width : 960 pixels
Height : 402 pixels
Display aspect ratio : 2.40:1
Frame rate mode : Constant
Frame rate : 24.000 FPS
Color space : YUV
Chroma subsampling : 4:2:0
Bit depth : 8 bits
Scan type : Progressive
Bits/(Pixel*Frame) : 0.162
Stream size : 1.10 GiB (78%)
Title : potroks
Writing library : x264 core 146 r2538 121396c
Encoding settings : cabac=1 / ref=12 / deblock=1:-2:-2 / analyse=0x3:0x113 / me=umh / subme=11 / psy=1 / psy_rd=1.00:0.05 / mixed_ref=1 / me_range=48 / chroma_me=1 / trellis=2 / 8x8dct=1 / cqm=0 / deadzone=21,11 / fast_pskip=0 / chroma_qp_offset=-3 / threads=9 / lookahead_threads=2 / sliced_threads=0 / nr=0 / decimate=0 / interlaced=0 / bluray_compat=0 / constrained_intra=0 / bframes=13 / b_pyramid=2 / b_adapt=2 / b_bias=0 / direct=3 / weightb=1 / open_gop=0 / weightp=2 / keyint=240 / keyint_min=23 / scenecut=40 / intra_refresh=0 / rc_lookahead=60 / rc=2pass / mbtree=0 / bitrate=1496 / ratetol=1.0 / qcomp=0.70 / qpmin=0 / qpmax=69 / qpstep=4 / cplxblur=20.0 / qblur=0.5 / vbv_maxrate=14000 / vbv_bufsize=14000 / nal_hrd=none / filler=0 / ip_ratio=1.40 / pb_ratio=1.30 / aq=1:0.80
Language : English
Default : Yes
Forced : No

Audio
ID : 2
Format : AC-3
Format/Info : Audio Coding 3
Mode extension : CM (complete main)
Format settings, Endianness : Big
Codec ID : A_AC3
Duration : 1 h 47 min
Bit rate mode : Constant
Bit rate : 384 kb/s
Channel(s) : 6 channels
Channel positions : Front: L C R, Side: L R, LFE
Sampling rate : 48.0 kHz
Frame rate : 31.250 FPS (1536 spf)
Compression mode : Lossy
Stream size : 296 MiB (20%)
Title : MVO | DD 5.1 @ 384 kbps - iTunes
Language : Russian
Default : Yes
Forced : No

Menu
00:00:00.000 : en:(01)00:00:00:000
00:07:50.915 : en:(02)00:07:50:915
00:15:23.207 : en:(03)00:15:23:207
00:24:40.625 : en:(04)00:24:40:625
00:38:49.833 : en:(05)00:38:49:833
00:43:41.791 : en:(06)00:43:41:791
00:58:08.958 : en:(07)00:58:08:958
01:07:19.333 : en:(08)01:07:19:333
01:13:50.416 : en:(09)01:13:50:416
01:17:30.166 : en:(10)01:17:30:166
01:35:39.291 : en:(11)01:35:39:291
01:41:33.541 : en:(12)01:41:33:541
piratbit.org



Скачать Такой же предатель, как и мы через торрент http://i84.fastpic.ru/big/2016/1021/d3/27e0188a86327331660a0201efcc12d3.png Скачать фильм Такой же предатель, как и мы через торрент бесплантно в хорошем качестве Описание: Молодая английская пара, отдыхая в Марокко, заводит знакомство с русским олигархом, отмывающим деньги для преступных ... 9 10 17
Info! Золотая раздача, скачанное не засчитывается.
Торрент: Зарегистрирован [2016-10-21 09:20] · скачан: 298 раз
Статус: √ проверено
Размер: 1.41 GB
Как cкачать? Как скачать Такой же предатель, как и мы через торрент | UTorrent

% Раздел Тема Автор DL S | L
Фильмы [HD 720p, 1080p] (Хороший звук DUB, MVO) [ 5.38 GB ] Такой же предатель как и мы / Our Kind of Traitor [2016 BDRip 720p] MVO bober100 Скачать
1 | 0
Фильмы [HD 720p, 1080p] (Хороший звук DUB, MVO) [ 14.01 GB ] Такой же предатель как и мы / Our Kind of Traitor [2016 BDRip 1080p] MVO bober100 Скачать
1 | 0
Фильмы 2016 [DVDrip, WEB-DLRip, HDrip] (DUB, MVO) [ 721 MB ] Такой же предатель как и мы / Our Kind of Traitor [2016 HDRip многоголосый закадровый ""] coc900 Скачать
1 | 0
Фильмы без перевода [ 28.83 GB ] Такой же предатель как и мы / Our Kind of Traitor [2016 BD Remux] [Оригинал] smaster Скачать
1 | 0
Фильмы 2016 [DVDrip, WEB-DLRip, HDrip] (DUB, MVO) [ 1.41 GB ] Такой же предатель как и мы / Our Kind of Traitor [2016 BDRip] MVO [ ] Twi7ter Скачать
1 | 0
Фильмы (Blu-ray, BD-Remux, HDDVD) [ 29.11 GB ] Такой же предатель как и мы / Our Kind of Traitor [2016 BDRemux 1080p] от ExKinoRay / Russian Mafia Скачать
1 | 0
Фильмы 2016 [DVDrip, WEB-DLRip, HDrip] (DUB, MVO) [ 2.05 GB ] Такой же предатель как и мы / Our Kind of Traitor [2016 HDRip] [MVO] killermax2013 Скачать
1 | 0

28-11-2019 20:33  

Отключить всю рекламу на сайте

21-10-2016 09:35 Такой же предатель, как и мы Скачать торрент  

potroks, вы не получали рассылку в личку?

скриншот  

Смысл в том, чтобы не использовать теги при оформлении раздач, так как идет дополнительная нагрузка на сайт.
Прошу вас отредактировать шаблон во флешрелизе и не использовать эти теги в Отчетах МедиаИнфо.piratbit.org



    Дорогой пользователь! Огромная просьба, поблагодарите релизера, оцените раздачу и оставьте свои комментарий, если Вы скачали Такой же предатель, как и мы через торрент бесплатно! Внесите свою лепту в развитие PiratBit!
    Комментировать посты могут только пользователи прошедшие не сложную регистрацию
    Показать сообщения:    

    Такой же предатель, как и мы через торрент
    Скачать бесплатно Такой же предатель, как и мы
    Такой же предатель, как и мы скачать торрент
    Такой же предатель, как и мы смотреть онлайн
    Cкачать фильм Такой же предатель, как и мы бесплатно
    Такой же предатель, как и мы скачать торрент в хорошем качестве
    Такой же предатель, как и мы смотреть онлайн бесплатно в хорошем качестве


    Вы не можете начинать темы
    Вы не можете отвечать на сообщения
    Вы не можете редактировать свои сообщения
    Вы не можете удалять свои сообщения
    Вы не можете голосовать в опросах
    Вы не можете прикреплять файлы к сообщениям
    Вы можете скачивать файлы