1 сезон

3 сезон

iTunes

1

iTunes

DUB Netflix

iTunes

13

1 сезон

RePack

30

Deluxe

pack

Легкие деньги

ВАЖНО

ИГРА 18+

pack

RePack

MK11

RePack

jed

RePack

fifa19

RePack

RDR2

RePack

NEED FOR SPEED™ PAYBACK

4 сезон

9 сезон

Бесстыжие 9 сезон

Все сериалы

все сериалы на PB.wtf

RePack

FAR CRY 5

Anonymous, добрый день, мы не успеваем до 1 числа собрать деньги на оплату серверов, помогите нам пожалуйста в это трудное время. В качестве благодарности мы отключим Вам всю рекламу на сайте (укажите свой ник в строку Ваше имя)!

×
  
Magnet ссылка

Стартрек: Бесконечность / Star Trek Beyond (Джастин Лин) [2016, фантастика, боевик, триллер, BDRip-AVC от potroks] Dub [iTunes] piratbit.org

Стартрек: Бесконечность через торрент piratbit.org

Размер: 1.46 GB | Добавлен: 4 года 7 мес. назад | Торрент скачан:238 раз
Скачать  

21-10-2016 15:39 Стартрек: Бесконечность Скачать торрент  

Стартрек: Бесконечность / Star Trek Beyond

Год выпуска: 2016
Страна: США / Paramount Pictures...
Жанр: фантастика, боевик, триллер, приключения
Продолжительность: 02:02:22
Перевод: Дубляж [iTunes]
Субтитры: русские (форс.(дополнены)), русские (iTunes), русские (Notabenoid)
Навигация по главам: есть
Режиссер: Джастин Лин
В ролях:

Крис Пайн (Captain James T. Kirk), Закари Куинто (Commander Spock), Саймон Пегг (Montgomery «Scotty» Scott), Карл Урбан (Doctor «Bones» McCoy), Зои Салдана (Lieutenant Uhura), Джон Чо (Sulu), Антон Ельчин (Chekov), Идрис Эльба (Krall), София Бутелла (Jaylah), Джо Таслим (Manas), Лидия Уилсон (Kalara), Дип Рой (Keenser)
Описание: Бесстрашная команда крейсера Звездного Флота «Энтерпрайз» исследует неизведанные глубины космоса. Во время этого полного опасностей путешествия герои сталкиваются с таинственной силой, ставящей под угрозу не только их миссию и стабильность Федерации, но и весь миропорядок.

Качество: BDRip-AVC
Формат: MKV
Видео: AVC, 960x402 (2.40:1), 1516 kbps, 23,976 fps, 0,164 bpp
Аудио: русский / AC3 / 2.0 / 48 kHz / 192 kbps / 16 bit
General
Unique ID : 226685048694369685536721187082001918519 (0xAA89F3CB68E59F72B58757DFABD32A37)
Complete name : F:\Фантастика\Startrek.Beskonechnost.2016.RUS.BDRip.x264.-HELLYWOOD.mkv
Format : Matroska
Format version : Version 4 / Version 2
File size : 1.46 GiB
Duration : 2 h 2 min
Overall bit rate : 1 709 kb/s
Movie name : Star Trek Beyond (2016)
Encoded date : UTC 2016-10-21 11:38:10
Writing application : mkvmerge v5.9.0 ('On The Loose') built on Dec 15 2012 16:39:58
Writing library : libebml v1.3.0 + libmatroska v1.4.0

Video
ID : 1
Format : AVC
Format/Info : Advanced Video Codec
Format profile : High@L4.1
Format settings, CABAC : Yes
Format settings, ReFrames : 12 frames
Codec ID : V_MPEG4/ISO/AVC
Duration : 2 h 2 min
Bit rate : 1 516 kb/s
Width : 960 pixels
Height : 402 pixels
Display aspect ratio : 2.40:1
Frame rate mode : Constant
Frame rate : 23.976 FPS
Color space : YUV
Chroma subsampling : 4:2:0
Bit depth : 8 bits
Scan type : Progressive
Bits/(Pixel*Frame) : 0.164
Stream size : 1.27 GiB (87%)
Title : potroks
Writing library : x264 core 146 r2538 121396c
Encoding settings : cabac=1 / ref=12 / deblock=1:-2:-2 / analyse=0x3:0x113 / me=umh / subme=11 / psy=1 / psy_rd=1.00:0.05 / mixed_ref=1 / me_range=48 / chroma_me=1 / trellis=2 / 8x8dct=1 / cqm=0 / deadzone=21,11 / fast_pskip=0 / chroma_qp_offset=-3 / threads=9 / lookahead_threads=2 / sliced_threads=0 / nr=0 / decimate=0 / interlaced=0 / bluray_compat=0 / constrained_intra=0 / bframes=13 / b_pyramid=2 / b_adapt=2 / b_bias=0 / direct=3 / weightb=1 / open_gop=0 / weightp=2 / keyint=240 / keyint_min=23 / scenecut=40 / intra_refresh=0 / rc_lookahead=60 / rc=2pass / mbtree=0 / bitrate=1516 / ratetol=1.0 / qcomp=0.70 / qpmin=0 / qpmax=69 / qpstep=4 / cplxblur=20.0 / qblur=0.5 / vbv_maxrate=14000 / vbv_bufsize=14000 / nal_hrd=none / filler=0 / ip_ratio=1.40 / pb_ratio=1.30 / aq=1:0.80
Language : English
Default : Yes
Forced : No

Audio
ID : 2
Format : AC-3
Format/Info : Audio Coding 3
Mode extension : CM (complete main)
Format settings, Endianness : Big
Codec ID : A_AC3
Duration : 2 h 2 min
Bit rate mode : Constant
Bit rate : 192 kb/s
Channel(s) : 2 channels
Channel positions : Front: L R
Sampling rate : 48.0 kHz
Frame rate : 31.250 FPS (1536 spf)
Compression mode : Lossy
Stream size : 168 MiB (11%)
Title : Dub | DD 2.0 @ 192 kbps - iTunes
Language : Russian
Default : Yes
Forced : No

Text #1
ID : 3
Format : UTF-8
Codec ID : S_TEXT/UTF8
Codec ID/Info : UTF-8 Plain Text
Title : Forced [potroks]
Language : Russian
Default : Yes
Forced : No

Text #2
ID : 4
Format : UTF-8
Codec ID : S_TEXT/UTF8
Codec ID/Info : UTF-8 Plain Text
Title : iTunes
Language : Russian
Default : No
Forced : No

Text #3
ID : 5
Format : UTF-8
Codec ID : S_TEXT/UTF8
Codec ID/Info : UTF-8 Plain Text
Title : Notabenoid
Language : Russian
Default : No
Forced : No

Menu
00:00:00.000 : en:(01)00:00:00:000
00:08:26.547 : en:(02)00:08:26:547
00:16:11.636 : en:(03)00:16:11:636
00:32:38.288 : en:(04)00:32:38:288
00:42:16.367 : en:(05)00:42:16:367
00:52:22.264 : en:(06)00:52:22:264
00:59:50.628 : en:(07)00:59:50:628
01:12:05.529 : en:(08)01:12:05:529
01:22:34.448 : en:(09)01:22:34:448
01:33:00.948 : en:(10)01:33:00:948
01:40:33.318 : en:(11)01:40:33:318
01:47:38.993 : en:(12)01:47:38:993
01:52:32.662 : en:(13)01:52:32:662
01:55:41.350 : en:(14)01:55:41:350
02:02:21.917 : en:(15)02:02:21:917
piratbit.org



Скачать Стартрек: Бесконечность через торрент http://i82.fastpic.ru/big/2016/1021/43/a6b841e9251df75d64c9cda9fdf6c843.png Скачать фильм Стартрек: Бесконечность через торрент бесплантно в хорошем качестве Описание: Бесстрашная команда крейсера Звездного Флота «Энтерпрайз» исследует неизведанные глубины космоса. Во время этого полного ... 10 10 8
Info! Золотая раздача, скачанное не засчитывается.
Торрент: Зарегистрирован [2016-10-21 15:39] · скачан: 238 раз
Статус: √ проверено
Размер: 1.46 GB
Как cкачать? Как скачать Стартрек: Бесконечность через торрент | UTorrent

% Раздел Тема Автор DL S | L
Фильмы [HD 720p, 1080p] (Хороший звук DUB, MVO) [ 6.19 GB ] Стартрек: Бесконечность / Star Trek: Beyond [2016 BDRip 1080p HEVC ] Мичман37 Скачать
1 | 0
Ultra HD (UHD: 2K, 4K, 8K) — видео сверхвысокой чёткости [ 51.89 GB ] Стартрек: Бесконечность / Star Trek Beyond [2016 UHD BDRemux 2160p] DUB [] bober100 Скачать
1 | 0
3D Фильмы [ 8.96 GB ] Стартрек: Бесконечность в 3D / Star Trek Beyond 3D [2016 BDRip 1080p] DUB / Half OverUnder sheker187 Скачать
1 | 0
Фильмы (HD 720p, 1080p) (48-60 fps) [ 5.31 GB ] Стартрек: Бесконечность / Star Trek Beyond [2016 BDRip 720p 60 fps от еnvy / NNNB] DUB еnvy Скачать
7 | 0
Фильмы 2016 [DVDrip, WEB-DLRip, HDrip] (DUB, MVO) [ 1.46 GB ] Стартрек: Бесконечность / Star Trek Beyond [2016 BDRip] - Twi7ter Скачать
2 | 0
Фильмы 2016 [DVDrip, WEB-DLRip, HDrip] (DUB, MVO) [ 2.13 GB ] Стартрек: Бесконечность / Star Trek Beyond [2016 BDRip] - Twi7ter Скачать
1 | 0
Фильмы (HD 720p, 1080p) (48-60 fps) [ 8.04 GB ] Стартрек: Бесконечность / Star Trek Beyond [2016 BDRip 720p by mimok] [BD CEE] 48fps mimok Скачать
1 | 0


Последний раз редактировалось: potroks (2016-10-21 18:36), всего редактировалось 4 раз(а)

28-11-2019 20:33  

Отключить всю рекламу на сайте

    Дорогой пользователь! Огромная просьба, поблагодарите релизера, оцените раздачу и оставьте свои комментарий, если Вы скачали Стартрек: Бесконечность через торрент бесплатно! Внесите свою лепту в развитие PiratBit!
    Комментировать посты могут только пользователи прошедшие не сложную регистрацию
    Показать сообщения:    

    Стартрек: Бесконечность через торрент
    Скачать бесплатно Стартрек: Бесконечность
    Стартрек: Бесконечность скачать торрент
    Стартрек: Бесконечность смотреть онлайн
    Cкачать фильм Стартрек: Бесконечность бесплатно
    Стартрек: Бесконечность скачать торрент в хорошем качестве
    Стартрек: Бесконечность смотреть онлайн бесплатно в хорошем качестве


    Вы не можете начинать темы
    Вы не можете отвечать на сообщения
    Вы не можете редактировать свои сообщения
    Вы не можете удалять свои сообщения
    Вы не можете голосовать в опросах
    Вы не можете прикреплять файлы к сообщениям
    Вы можете скачивать файлы