1 сезон

3 сезон

iTunes

1

iTunes

DUB Netflix

iTunes

13

1 сезон

RePack

30

Deluxe

pack

Легкие деньги

ВАЖНО

ИГРА 18+

pack

RePack

MK11

RePack

jed

RePack

fifa19

RePack

RDR2

RePack

NEED FOR SPEED™ PAYBACK

4 сезон

9 сезон

Бесстыжие 9 сезон

Все сериалы

все сериалы на PB.wtf

RePack

FAR CRY 5

Anonymous, добрый вечер, мы не успеваем до 1 числа собрать деньги на оплату серверов, помогите нам пожалуйста в это трудное время. В качестве благодарности мы отключим Вам всю рекламу на сайте (укажите свой ник в строку Ваше имя)!

×
  
Magnet ссылка

Стартрек: Бесконечность / Star Trek Beyond (Джастин Лин / Justin Lin) [2016, США, фантастика, боевик, триллер, приключения, BDRip-AVC от sokol_ok] Dub [iTunes] piratbit.org

Стартрек: Бесконечность через торрент piratbit.org

Раздают: 1 [ 0 KB/s ]
Размер: 1.46 GB | Добавлен: 4 года 8 мес. назад | Торрент скачан:354 раза
Скачать  

21-10-2016 17:55 Стартрек: Бесконечность Скачать торрент  

Стартрек: Бесконечность
Star Trek Beyond

«Fifty year. One legacy»


Страна: США
Жанр: фантастика, боевик, триллер, приключения

Год выпуска: 2016
Продолжительность: 02:02:22

Перевод: Профессиональный (полное дублирование) [iTunes]
Субтитры: русские (форсированные)
Оригинальная аудиодорожка: нет

Режиссер: Джастин Лин / Justin Lin

В ролях: Крис Пайн, Закари Куинто, Саймон Пегг, Карл Урбан, Зои Салдана, Джон Чо, Антон Ельчин, Идрис Эльба, София Бутелла, Джо Таслим

Описание:
Бесстрашная команда крейсера Звездного Флота «Энтерпрайз» исследует неизведанные глубины космоса. Во время этого полного опасностей путешествия герои сталкиваются с таинственной силой, ставящей под угрозу не только их миссию и стабильность Федерации, но и весь миропорядок.



Релиз:

Автор рипа: stalkerok

Сэмпл

Качество видео: BDRip-AVC [Star Trek Beyond (2016) 1080p BD-Remux HDCLUB]
Формат видео: MKV
Видео кодек: AVC
Аудио кодек: AC3
Видео: 1512 Кбит/сек, 960x402 (2.40:1), 23,976 кадр/сек, AVC
Аудио: русский, 192 Кбит/сек, 48 КГц, 16 бит, 2.0, AC3
Навигация по главам: есть

x264 [info]: frame I:1236 Avg QP:15.58 size: 48290
x264 [info]: frame P:44676 Avg QP:19.46 size: 15035
x264 [info]: frame B:130125 Avg QP:20.63 size: 5040

Общее
Уникальный идентификатор : 176599438393571825188911062942809881886 (0x84DBD08D52A36A808E6C4F3A84447D1E)
Полное имя : M:\3Rips\Star Trek Beyond\Star.Trek.Beyond.2016.BDRip-AVC.Dub.1.45Gb.stalkerok.new-team.mkv
Формат : Matroska
Версия формата : Version 4 / Version 2
Размер файла : 1,46 Гбайт
Продолжительность : 2 ч. 2 м.
Общий поток : 1705 Кбит/сек
Название фильма : Star Trek Beyond (2016) (Rip by stalkerok)
Дата кодирования : UTC 2016-10-21 17:34:48
Программа кодирования : mkvmerge v8.6.1 ('Flying') 64bit
Библиотека кодирования : libebml v1.3.3 + libmatroska v1.4.4

Видео
Идентификатор : 1
Формат : AVC
Формат/Информация : Advanced Video Codec
Профиль формата : High@L4.1
Параметр CABAC формата : Да
Параметр ReFrames формата : 15 кадров
Идентификатор кодека : V_MPEG4/ISO/AVC
Продолжительность : 2 ч. 2 м.
Битрейт : 1512 Кбит/сек
Ширина : 960 пикселей
Высота : 402 пикселя
Соотношение сторон : 2,40:1
Режим частоты кадров : Постоянный
Частота кадров : 23,976 (24000/1001) кадра/сек
Цветовое пространство : YUV
Субдискретизация насыщенности : 4:2:0
Битовая глубина : 8 бит
Тип развёртки : Прогрессивная
Бит/(Пиксели*Кадры) : 0.163
Размер потока : 1,29 Гбайт (89%)
Заголовок : Star Trek Beyond (2016) (Rip by stalkerok)
Библиотека кодирования : x264 core 148 r2705+54 9f484c1 t_mod_Custom [8-bit@all X86_64]
Настройки программы : cabac=1 / ref=15 / deblock=1:-3:-2 / analyse=0x3:0x133 / me=umh / subme=10 / psy=1 / fade_compensate=0.00 / psy_rd=1.00:0.00 / mixed_ref=1 / me_range=32 / chroma_me=1 / trellis=2 / 8x8dct=1 / cqm=0 / deadzone=21,11 / fast_pskip=0 / chroma_qp_offset=-2 / threads=12 / lookahead_threads=3 / sliced_threads=0 / nr=0 / decimate=0 / interlaced=0 / bluray_compat=0 / constrained_intra=0 / fgo=0 / bframes=15 / b_pyramid=2 / b_adapt=2 / b_bias=0 / direct=3 / weightb=1 / open_gop=0 / weightp=2 / keyint=240 / keyint_min=23 / scenecut=40 / intra_refresh=0 / rc_lookahead=60 / rc=2pass / mbtree=0 / bitrate=1512 / ratetol=1.0 / qcomp=0.65 / qpmin=0:0:0 / qpmax=69:69:69 / qpstep=4 / cplxblur=20.0 / qblur=0.5 / vbv_maxrate=50000 / vbv_bufsize=62500 / nal_hrd=none / filler=0 / ip_ratio=1.35 / pb_ratio=1.25 / aq=3:0.85 / aq-sensitivity=10.00 / aq-factor=1.00:1.00:1.00 / aq2=0 / aq3=0
Default : Да
Forced : Нет

Аудио
Идентификатор : 2
Формат : AC-3
Формат/Информация : Audio Coding 3
Расширение режима : CM (complete main)
Параметр Endianness формата : Big
Идентификатор кодека : A_AC3
Продолжительность : 2 ч. 2 м.
Вид битрейта : Постоянный
Битрейт : 192 Кбит/сек
Каналы : 2 канала
Расположение каналов : Front: L R
Частота : 48,0 КГц
Частота кадров : 31,250 кадров/сек (1536 spf)
Метод сжатия : С потерями
Размер потока : 168 Мбайт (11%)
Язык : Russian
Default : Да
Forced : Нет

Текст
Идентификатор : 3
Формат : UTF-8
Идентификатор кодека : S_TEXT/UTF8
Идентификатор кодека/Информация : UTF-8 Plain Text
Продолжительность : 1 ч. 49 м.
Битрейт : 1 бит/сек
Count of elements : 33
Размер потока : 1,59 Кбайт (0%)
Заголовок : Forced [potroks]
Язык : Russian
Default : Да
Forced : Нет

Меню
00:00:00.000 : en:Chapter 1
00:08:26.547 : en:Chapter 2
00:16:11.636 : en:Chapter 3
00:32:38.288 : en:Chapter 4
00:42:16.367 : en:Chapter 5
00:52:22.264 : en:Chapter 6
00:59:50.628 : en:Chapter 7
01:12:05.529 : en:Chapter 8
01:22:34.448 : en:Chapter 9
01:33:00.948 : en:Chapter 10
01:40:33.318 : en:Chapter 11
01:47:38.993 : en:Chapter 12
01:52:32.662 : en:Chapter 13
01:55:41.350 : en:Chapter 14
piratbit.org



Скачать Стартрек: Бесконечность через торрент http://i72.fastpic.ru/big/2015/0531/46/68ef8a2783b58e5344cc30bbd3f1b046.png Скачать фильм Стартрек: Бесконечность через торрент бесплантно в хорошем качестве Описание:Бесстрашная команда крейсера Звездного Флота «Энтерпрайз» исследует неизведанные глубины космоса. Во время этого полного ... 9.9 10 9
Info! Золотая раздача, скачанное не засчитывается.
Торрент: Зарегистрирован [2016-10-21 17:55] · скачан: 354 раз
Статус: √ проверено
Размер: 1.46 GB
Как cкачать? Как скачать Стартрек: Бесконечность через торрент | UTorrent

% Раздел Тема Автор DL S | L
Фильмы [HD 720p, 1080p] (Хороший звук DUB, MVO) [ 6.19 GB ] Стартрек: Бесконечность / Star Trek: Beyond [2016 BDRip 1080p HEVC ] Мичман37 Скачать
1 | 0
Ultra HD (UHD: 2K, 4K, 8K) — видео сверхвысокой чёткости [ 51.89 GB ] Стартрек: Бесконечность / Star Trek Beyond [2016 UHD BDRemux 2160p] DUB [] bober100 Скачать
1 | 0
3D Фильмы [ 8.96 GB ] Стартрек: Бесконечность в 3D / Star Trek Beyond 3D [2016 BDRip 1080p] DUB / Half OverUnder sheker187 Скачать
1 | 0
Фильмы (HD 720p, 1080p) (48-60 fps) [ 5.31 GB ] Стартрек: Бесконечность / Star Trek Beyond [2016 BDRip 720p 60 fps от еnvy / NNNB] DUB еnvy Скачать
4 | 0
Фильмы 2016 [DVDrip, WEB-DLRip, HDrip] (DUB, MVO) [ 1.46 GB ] Стартрек: Бесконечность / Star Trek Beyond [2016 BDRip] - Twi7ter Скачать
2 | 0
Фильмы 2016 [DVDrip, WEB-DLRip, HDrip] (DUB, MVO) [ 2.13 GB ] Стартрек: Бесконечность / Star Trek Beyond [2016 BDRip] - Twi7ter Скачать
1 | 0
Фильмы (HD 720p, 1080p) (48-60 fps) [ 8.04 GB ] Стартрек: Бесконечность / Star Trek Beyond [2016 BDRip 720p by mimok] [BD CEE] 48fps mimok Скачать
1 | 0

28-11-2019 20:33  

Отключить всю рекламу на сайте

    Дорогой пользователь! Огромная просьба, поблагодарите релизера, оцените раздачу и оставьте свои комментарий, если Вы скачали Стартрек: Бесконечность через торрент бесплатно! Внесите свою лепту в развитие PiratBit!
    Комментировать посты могут только пользователи прошедшие не сложную регистрацию
    Показать сообщения:    

    Стартрек: Бесконечность через торрент
    Скачать бесплатно Стартрек: Бесконечность
    Стартрек: Бесконечность скачать торрент
    Стартрек: Бесконечность смотреть онлайн
    Cкачать фильм Стартрек: Бесконечность бесплатно
    Стартрек: Бесконечность скачать торрент в хорошем качестве
    Стартрек: Бесконечность смотреть онлайн бесплатно в хорошем качестве


    Вы не можете начинать темы
    Вы не можете отвечать на сообщения
    Вы не можете редактировать свои сообщения
    Вы не можете удалять свои сообщения
    Вы не можете голосовать в опросах
    Вы не можете прикреплять файлы к сообщениям
    Вы можете скачивать файлы