1 сезон

3 сезон

iTunes

1

iTunes

DUB Netflix

iTunes

13

1 сезон

RePack

30

Deluxe

pack

Легкие деньги

ВАЖНО

ИГРА 18+

pack

RePack

MK11

RePack

jed

RePack

fifa19

RePack

RDR2

RePack

NEED FOR SPEED™ PAYBACK

4 сезон

9 сезон

Бесстыжие 9 сезон

Все сериалы

все сериалы на PB.wtf

RePack

FAR CRY 5

Anonymous, добрый день, мы не успеваем до 1 числа собрать деньги на оплату серверов, помогите нам пожалуйста в это трудное время. В качестве благодарности мы отключим Вам всю рекламу на сайте (укажите свой ник в строку Ваше имя)!

×
  
Magnet ссылка

Да здравствует Цезарь! / Hail, Caesar! [2016 г., комедия, детектив, HDRip, Дубляж "BD CEE"] piratbit.org

Да здравствует Цезарь! через торрент piratbit.org

Размер: 2.17 GB | Добавлен: 4 года 7 мес. назад | Торрент скачан:168 раз
Скачать  

21-10-2016 18:14 Да здравствует Цезарь! Скачать торрент  

Да здравствует Цезарь! / Hail Caesar!
Год выпуска: 2016
Страна: Великобритания, США, Япония / Dentsu, Mike Zoss Productions, Working Title Films
Жанр: комедия, детектив
Продолжительность: 01:46:05
Перевод: Дубляж (BD CEE)

rating

В ролях: Джош Бролин, Джордж Клуни, Олден Эренрайк, Рэйф Файнс, Скарлетт Йоханссон, Тильда Суинтон, Ченнинг Татум, Фрэнсис МакДорманд, Джона Хилл, Вероника Осорио

Описание: Добро пожаловать в Голливуд – империю блеска, роскоши и порока. Здесь обитают кумиры миллионов. Что ни день – пиршество для светских хроникеров. И вот однажды исчезает исполнитель главной роли в фильме «Да здравствует Цезарь!». Ни жена, ни многочисленные любовницы не знают, где он. И теперь продюсера студии ждет веселый денек, ведь он должен найти звезду раньше репортеров…

Качество: HDRip
Формат: AVI
Видео кодек: XviD
Аудио кодек: AC3
Видео: 720x384 (1.88:1), 23.976 fps, XviD build 50 ~2479 kbps avg, 0.37 bit/pixel
Аудио: 48 kHz, AC3 Dolby Digital, 3/2 (L,C,R,l,r) + LFE ch, ~448 kbps

Общее
Полное имя : F:\ФИЛЬМЫ\Да здравствует Цезарь!.2016.D.HDRip.avi
Формат : AVI
Формат/Информация : Audio Video Interleave
Профиль формата : OpenDML
Размер файла : 2,17 Гбайт
Продолжительность : 1 ч. 46 м.
Общий поток : 2935 Кбит/сек
Программа кодирования : VirtualDubMod 1.5.10.3 | www.virtualdub-fr.org || (build 2550/release)
Библиотека кодирования : VirtualDubMod build 2550/release

Видео
Идентификатор : 0
Формат : MPEG-4 Visual
Профиль формата : Advanced Simple@L5
Параметр BVOP формата : 1
Параметр QPel формата : Нет
Параметр GMC формата : Без точки перехода
Параметр матрицы формата : Default (MPEG)
Идентификатор кодека : XVID
Идентификатор кодека/Подсказка : XviD
Продолжительность : 1 ч. 46 м.
Битрейт : 2475 Кбит/сек
Ширина : 720 пикселей
Высота : 384 пикселя
Соотношение сторон : 1,85:1
Частота кадров : 23,976 (23976/1000) кадра/сек
Цветовое пространство : YUV
Субдискретизация насыщенности : 4:2:0
Битовая глубина : 8 бит
Тип развёртки : Прогрессивная
Метод сжатия : С потерями
Бит/(Пиксели*Кадры) : 0.373
Размер потока : 1,83 Гбайт (84%)
Библиотека кодирования : XviD 1.2.1 (UTC 2008-12-04)

Аудио
Идентификатор : 1
Формат : AC-3
Формат/Информация : Audio Coding 3
Расширение режима : CM (complete main)
Параметр Endianness формата : Big
Идентификатор кодека : 2000
Продолжительность : 1 ч. 46 м.
Вид битрейта : Постоянный
Битрейт : 448 Кбит/сек
Каналы : 6 каналов
Расположение каналов : Front: L C R, Side: L R, LFE
Частота : 48,0 КГц
Частота кадров : 31,250 кадров/сек (1536 spf)
Метод сжатия : С потерями
Размер потока : 340 Мбайт (15%)
Выравнивание : Разделение по промежуткам
Продолжительность промежутка : 42 мс. (1,00 видеокадр)
Время предзагрузки промежутка : 500 мс.

piratbit.org



Скачать Да здравствует Цезарь! через торрент https://pic.kartinco.top/images/11/s89ao.jpg Скачать фильм Да здравствует Цезарь! через торрент бесплантно в хорошем качестве Описание: Добро пожаловать в Голливуд – империю блеска, роскоши и порока. Здесь обитают кумиры миллионов. Что ни день – пиршество для ... 8.8 10 8
Торрент: Зарегистрирован [2016-10-21 18:14] · скачан: 168 раз
Статус: √ проверено
Размер: 2.17 GB
Как cкачать? Как скачать Да здравствует Цезарь! через торрент | UTorrent

% Раздел Тема Автор DL S | L
R.G. Resident & PiratVoice - Фильмы, Видео [ 1.85 GB ] Да здравствует Цезарь! / Hail Caesar! [2016 WEB-DLRip-AVC от R.G. Resident] ] -Lexx- Скачать
2 | 0
Фильмы [HD 720p, 1080p] (Хороший звук DUB, MVO) [ 7.76 GB ] Да здравствует Цезарь! / Hail Caesar! [2016 BDRip 720p от _denis_100 / NNNB] DUB + 2xAVO + Original + Sub _denis_100 Скачать
1 | 0
Фильмы (Blu-ray, BD-Remux, HDDVD) [ 41.63 GB ] Да здравствует Цезарь! / Hail Caesar! [2016 Blu-Ray] Russian Mafia Скачать
1 | 1
Фильмы 2016 [DVDrip, WEB-DLRip, HDrip] (DUB, MVO) [ 1.46 GB ] Да здравствует Цезарь! / Hail Caesar! [2016 WEB-DLRip ] Twi7ter Скачать
1 | 0
Фильмы (WEB-DL 720p, 1080p) [ 4.06 GB ] Да здравствует Цезарь! / Hail Caesar! [2016 WEB DL 1080p] $-DRON-$ Скачать
1 | 0
Фильмы (WEB-DL 720p, 1080p) [ 3.2 GB ] Да здравствует Цезарь! / Hail Caesar! [2016 WEB-DL 720p] $-DRON-$ Скачать
1 | 0
Фильмы 2016 [DVDrip, WEB-DLRip, HDrip] (DUB, MVO) [ 1.46 GB ] Да здравствует Цезарь! / Hail Caesar! [2016 мюзикл WEB-DLRip] killermax2013 Скачать
1 | 0

28-11-2019 20:33  

Отключить всю рекламу на сайте

    Дорогой пользователь! Огромная просьба, поблагодарите релизера, оцените раздачу и оставьте свои комментарий, если Вы скачали Да здравствует Цезарь! через торрент бесплатно! Внесите свою лепту в развитие PiratBit!
    Комментировать посты могут только пользователи прошедшие не сложную регистрацию
    Показать сообщения:    

    Да здравствует Цезарь! через торрент
    Скачать бесплатно Да здравствует Цезарь!
    Да здравствует Цезарь! скачать торрент
    Да здравствует Цезарь! смотреть онлайн
    Cкачать фильм Да здравствует Цезарь! бесплатно
    Да здравствует Цезарь! скачать торрент в хорошем качестве
    Да здравствует Цезарь! смотреть онлайн бесплатно в хорошем качестве


    Вы не можете начинать темы
    Вы не можете отвечать на сообщения
    Вы не можете редактировать свои сообщения
    Вы не можете удалять свои сообщения
    Вы не можете голосовать в опросах
    Вы не можете прикреплять файлы к сообщениям
    Вы можете скачивать файлы