1 сезон

3 сезон

iTunes

1

iTunes

DUB Netflix

iTunes

13

1 сезон

RePack

30

Deluxe

pack

Легкие деньги

ВАЖНО

ИГРА 18+

pack

RePack

MK11

RePack

jed

RePack

fifa19

RePack

RDR2

RePack

NEED FOR SPEED™ PAYBACK

4 сезон

9 сезон

Бесстыжие 9 сезон

Все сериалы

все сериалы на PB.wtf

RePack

FAR CRY 5

Anonymous, добрый вечер, мы не успеваем до 1 числа собрать деньги на оплату серверов, помогите нам пожалуйста в это трудное время. В качестве благодарности мы отключим Вам всю рекламу на сайте (укажите свой ник в строку Ваше имя)!

×
  
Magnet ссылка

Славные парни / The Nice Guys (Шейн Блэк ) [2016, криминал, комедия, боевик, BDRip-AVC от potroks] Dub [iTunes] piratbit.org

Славные парни через торрент piratbit.org

Раздают: 1 [ 0 KB/s ]
Размер: 1.41 GB | Добавлен: 4 года 7 мес. назад | Торрент скачан:886 раз
Скачать  

25-10-2016 07:02 Славные парни Скачать торрент  

Славные парни / The Nice Guys

Год выпуска: 2016
Страна: США, Великобритания / Bloom, Lip Sync Productions, Nice Guys...
Жанр: криминал, комедия, боевик
Продолжительность: 01:55:57
Перевод: Дубляж [iTunes]
Субтитры: русские
Навигация по главам: есть
Режиссер: Шейн Блэк
В ролях:

Райан Гослинг (Holland March), Ким Бейсингер (Judith Kuttner), Рассел Кроу (Jackson Healy), Энгаури Райс (Holly March), Мэтт Бомер (John Boy), Маргарет Куэлли (Amelia Kuttner), Йайа ДаКоста (Tally), Кит Дэвид (Older Guy), Бо Напп (Blueface), Лоис Смит (Mrs. Glenn), Мюриэлль Телио (Misty Mountains), Джил Джерард (Bergen Paulsen)
Описание: Что бывает, когда напарником брутального костолома становится субтильный лопух? Наемный охранник Джексон Хили и частный детектив Холланд Марч вынуждены работать в паре, чтобы распутать плевое дело о пропавшей девушке, которое оборачивается преступлением века.

Качество: BDRip-AVC
Формат: MKV
Видео: AVC, 960x400 (2.40:1), 1355 kbps, 23,976 fps, 0,147 bpp
Аудио: русский / AC3 / 5.1 / 48 kHz / 384 kbps / 16 bit
General
Unique ID : 239322293680197425462462979043474814561 (0xB40BCC13B6CD4A50B062AEF7C3DC3661)
Complete name : F:\Комедия\Slavnyie.Parni.2016.RUS.BDRip.x264.-HELLYWOOD.mkv
Format : Matroska
Format version : Version 4 / Version 2
File size : 1.41 GiB
Duration : 1 h 55 min
Overall bit rate : 1 739 kb/s
Movie name : The Nice Guys (2016)
Encoded date : UTC 2016-08-15 05:58:50
Writing application : mkvmerge v5.9.0 ('On The Loose') built on Dec 15 2012 16:39:58
Writing library : libebml v1.3.0 + libmatroska v1.4.0

Video
ID : 1
Format : AVC
Format/Info : Advanced Video Codec
Format profile : High@L4.1
Format settings, CABAC : Yes
Format settings, ReFrames : 12 frames
Codec ID : V_MPEG4/ISO/AVC
Duration : 1 h 55 min
Bit rate : 1 355 kb/s
Width : 960 pixels
Height : 400 pixels
Display aspect ratio : 2.40:1
Frame rate mode : Constant
Frame rate : 23.976 FPS
Color space : YUV
Chroma subsampling : 4:2:0
Bit depth : 8 bits
Scan type : Progressive
Bits/(Pixel*Frame) : 0.147
Stream size : 1.07 GiB (76%)
Title : potroks
Writing library : x264 core 146 r2538 121396c
Encoding settings : cabac=1 / ref=12 / deblock=1:-2:-2 / analyse=0x3:0x113 / me=umh / subme=11 / psy=1 / psy_rd=1.00:0.05 / mixed_ref=1 / me_range=48 / chroma_me=1 / trellis=2 / 8x8dct=1 / cqm=0 / deadzone=21,11 / fast_pskip=0 / chroma_qp_offset=-3 / threads=9 / lookahead_threads=2 / sliced_threads=0 / nr=0 / decimate=0 / interlaced=0 / bluray_compat=0 / constrained_intra=0 / bframes=13 / b_pyramid=2 / b_adapt=2 / b_bias=0 / direct=3 / weightb=1 / open_gop=0 / weightp=2 / keyint=240 / keyint_min=23 / scenecut=40 / intra_refresh=0 / rc_lookahead=60 / rc=2pass / mbtree=0 / bitrate=1355 / ratetol=1.0 / qcomp=0.70 / qpmin=0 / qpmax=69 / qpstep=4 / cplxblur=20.0 / qblur=0.5 / vbv_maxrate=14000 / vbv_bufsize=14000 / nal_hrd=none / filler=0 / ip_ratio=1.40 / pb_ratio=1.30 / aq=1:0.80
Language : English
Default : Yes
Forced : No

Audio
ID : 2
Format : AC-3
Format/Info : Audio Coding 3
Mode extension : CM (complete main)
Format settings, Endianness : Big
Codec ID : A_AC3
Duration : 1 h 55 min
Bit rate mode : Constant
Bit rate : 384 kb/s
Channel(s) : 6 channels
Channel positions : Front: L C R, Side: L R, LFE
Sampling rate : 48.0 kHz
Frame rate : 31.250 FPS (1536 spf)
Compression mode : Lossy
Stream size : 318 MiB (22%)
Title : Dub | DD 5.1 @ 384 kbps - iTunes
Language : Russian
Default : No
Forced : No

Text
ID : 3
Format : UTF-8
Codec ID : S_TEXT/UTF8
Codec ID/Info : UTF-8 Plain Text
Language : Russian
Default : No
Forced : No

Menu
00:00:00.000 : en:Chapter 01
00:10:41.683 : en:Chapter 02
00:21:07.308 : en:Chapter 03
00:29:12.876 : en:Chapter 04
00:40:12.744 : en:Chapter 05
00:50:50.464 : en:Chapter 06
01:01:02.033 : en:Chapter 07
01:10:15.420 : en:Chapter 08
01:19:59.086 : en:Chapter 09
01:29:40.709 : en:Chapter 10
01:40:10.338 : en:Chapter 11
01:48:35.801 : en:Chapter 12
01:50:49.977 : en:Chapter 13
piratbit.org



Скачать Славные парни через торрент http://i83.fastpic.ru/big/2016/1025/49/c32d4ad053dcbdf18de0a8f3291e6149.png Скачать фильм Славные парни через торрент бесплантно в хорошем качестве Описание: Что бывает, когда напарником брутального костолома становится субтильный лопух? Наемный охранник Джексон Хили и частный детектив ... 9.8 10 14
Info! Золотая раздача, скачанное не засчитывается.
Торрент: Зарегистрирован [2016-10-25 07:02] · скачан: 886 раз
Статус: √ проверено
Размер: 1.41 GB
Как cкачать? Как скачать Славные парни через торрент | UTorrent

% Раздел Тема Автор DL S | L
Фильмы [HD 720p, 1080p] (Хороший звук DUB, MVO) [ 4.02 GB ] Славные парни / The Nice Guys [2016 BDRip 1080p HEVC ] Мичман37 Скачать
4 | 0
Ultra HD (UHD: 2K, 4K, 8K) — видео сверхвысокой чёткости [ 24.36 GB ] Славные парни / The Nice Guys [2016 UHD WEBRip 2160p] DUB + DVO [Кубик в кубе] + AVO [Ю.Сербин] sheker187 Скачать
1 | 0
Фильмы (WEB-DL 720p, 1080p) [ 3.73 GB ] Славные парни / The Nice Guys [2016 WEB-DL 1080p / ] Ворон Скачать
1 | 0
Фильмы 2016 [DVDrip, WEB-DLRip, HDrip] (DUB, MVO) [ 751 MB ] Славные парни / The Nice Guys [2016 HDRip by _Один_777] Dub () Один 777 Скачать
1 | 0
Фильмы (Blu-ray, BD-Remux, HDDVD) [ 25.93 GB ] Славные парни / The Nice Guys [2016 BDRemux 1080p от ExKinoRay] [] Russian Mafia Скачать
1 | 0
Фильмы 2016 [DVDrip, WEB-DLRip, HDrip] (DUB, MVO) [ 1.46 GB ] Славные парни / The Nice Guys [2016 BDRip] - [] Twi7ter Скачать
2 | 0
Фильмы 2016 [DVDrip, WEB-DLRip, HDrip] (DUB, MVO) [ 1.46 GB ] Славные парни / The Nice Guys [2016 HDRip][Кубик в Кубе] [БЕЗ ЦЕНЗУРЫ] God_Slayer Скачать
1 | 0

28-11-2019 20:33  

Отключить всю рекламу на сайте

    Дорогой пользователь! Огромная просьба, поблагодарите релизера, оцените раздачу и оставьте свои комментарий, если Вы скачали Славные парни через торрент бесплатно! Внесите свою лепту в развитие PiratBit!
    Комментировать посты могут только пользователи прошедшие не сложную регистрацию
    Показать сообщения:    

    Славные парни через торрент
    Скачать бесплатно Славные парни
    Славные парни скачать торрент
    Славные парни смотреть онлайн
    Cкачать фильм Славные парни бесплатно
    Славные парни скачать торрент в хорошем качестве
    Славные парни смотреть онлайн бесплатно в хорошем качестве


    Вы не можете начинать темы
    Вы не можете отвечать на сообщения
    Вы не можете редактировать свои сообщения
    Вы не можете удалять свои сообщения
    Вы не можете голосовать в опросах
    Вы не можете прикреплять файлы к сообщениям
    Вы можете скачивать файлы