1 сезон

3 сезон

iTunes

1

iTunes

DUB Netflix

iTunes

13

1 сезон

RePack

30

Deluxe

pack

Легкие деньги

ВАЖНО

ИГРА 18+

pack

RePack

MK11

RePack

jed

RePack

fifa19

RePack

RDR2

RePack

NEED FOR SPEED™ PAYBACK

4 сезон

9 сезон

Бесстыжие 9 сезон

Все сериалы

все сериалы на PB.wtf

RePack

FAR CRY 5

Anonymous, доброй ночи, мы не успеваем до 1 числа собрать деньги на оплату серверов, помогите нам пожалуйста в это трудное время. В качестве благодарности мы отключим Вам всю рекламу на сайте (укажите свой ник в строку Ваше имя)!

×
  
Magnet ссылка

День независимости: Возрождение / Independence Day: Resurgence (Роланд Эммерих) [2016, фантастика, боевик, приключения, HDRip, Профессиональный (полное дублирование) / Лицензия] piratbit.org

День независимости: Возрождение через торрент piratbit.org

Размер: 697 MB | Добавлен: 4 года 7 мес. назад | Торрент скачан:227 раз
Скачать  

25-10-2016 08:06 День независимости: Возрождение Скачать торрент  

День независимости: Возрождение / Independence Day: Resurgence
««У нас было двадцать лет на подготовку. У них тоже»»


Год выпуска: 2016
Страна: США
Жанр: фантастика, боевик, приключения

Продолжительность: 01:59:44
Перевод: Профессиональный (полное дублирование) | Лицензия
Режиссер: Роланд Эммерих
В ролях:

Лиам Хемсворт (Jake Morrison), Джефф Голдблюм (David Levinson), Джесси Ашер (Dylan Hiller), Билл Пуллман (President Whitmore), Майка Монро (Patricia Whitmore), Села Уорд (President Lanford), Уильям Фихтнер (General Adams), Джадд Хёрш (Julius Levinson), Брент Спайнер (Dr. Brakish Okun), Патрик Ст. Эсприт (Secretary of Defense Tanner), Вивика А. Фокс (Jasmine Hiller), Анджела Бейби (Rain Lao)
Описание:
Используя инопланетные технологии, жители Земли создали специальную программу по защите планеты. Но ничего не может нас спасти от нового, еще более разрушительного и масштабного инопланетного вторжения - только смелость нескольких героев, которые единственные могут спасти наш мир от уничтожения.
Мировая премьера: 20 июня 2016

Качество: HDRip Rip by Psycho

Формат: AVI
Видео: MPEG-4 Visual ASP, 720x304 (2.35:1), 619 kbps, 23.976 fps, 0.118 bpp
Аудио: AC3 / 2.0 / 48 kHz / 192 kbps /

Код:

Video
ID                                       : 1
Format                                   : MPEG-4 Visual
Format profile                           : Advanced Simple@L5
Format settings, BVOP                    : 2
Format settings, QPel                    : No
Format settings, GMC                     : No warppoints
Format settings, Matrix                  : Default (H.263)
Codec ID                                 : V_MPEG4/ISO/ASP
Codec ID/Info                            : Advanced Simple Profile
Duration                                 : 1 h 59 min
Bit rate                                 : 620 kb/s
Width                                    : 720 pixels
Height                                   : 304 pixels
Display aspect ratio                     : 2.35:1
Frame rate mode                          : Constant
Frame rate                               : 23.976 (24000/1001) FPS
Color space                              : YUV
Chroma subsampling                       : 4:2:0
Bit depth                                : 8 bits
Scan type                                : Progressive
Compression mode                         : Lossy
Bits/(Pixel*Frame)                       : 0.118
Stream size                              : 531 MiB (76%)
Writing library                          : XviD 67
Default                                  : Yes
Forced                                   : No

Audio
ID                                       : 2
Format                                   : AC-3
Format/Info                              : Audio Coding 3
Mode extension                           : CM (complete main)
Format settings, Endianness              : Big
Codec ID                                 : A_AC3
Duration                                 : 1 h 59 min
Bit rate mode                            : Constant
Bit rate                                 : 192 kb/s
Channel(s)                               : 2 channels
Channel positions                        : Front: L R
Sampling rate                            : 48.0 kHz
Frame rate                               : 31.250 FPS (1536 spf)
Compression mode                         : Lossy
Stream size                              : 164 MiB (24%)
Default                                  : Yes
Forced                                   : No


© Оформление by White Smoke piratbit.org



Скачать День независимости: Возрождение через торрент http://i4.imageban.ru/out/2016/10/25/70ac6132432c5f3c36a0ac50ad40b9c1.png Скачать фильм День независимости: Возрождение через торрент бесплантно в хорошем качестве Описание: Используя инопланетные технологии, жители Земли создали специальную программу по защите планеты. Но ничего не может нас спасти от ... 9.6 10 13
Торрент: Зарегистрирован [2016-10-25 08:06] · скачан: 227 раз
Статус: √ проверено
Размер: 697 MB
Как cкачать? Как скачать День независимости: Возрождение через торрент | UTorrent

% Раздел Тема Автор DL S | L
Ultra HD (UHD: 2K, 4K, 8K) — видео сверхвысокой чёткости [ 39.68 GB ] День независимости: Возрождение / Independence Day: Resurgence [2016 UHD BDRemux 2160p] DUB [] + 2xAVO sheker187 Скачать
1 | 0
Фильмы [HD 720p, 1080p] (Хороший звук DUB, MVO) [ 7.12 GB ] День независимости: Возрождение / Independence Day: Resurgence [2016 BDRip 720p] DUB [] bober100 Скачать
1 | 0
Ultra HD (UHD: 2K, 4K, 8K) — видео сверхвысокой чёткости [ 42.73 GB ] День независимости: Возрождение / Independence Day: Resurgence [2016 UHD Blu-Ray 2160p] DUB [] bober100 Скачать
1 | 0
Ultra HD (UHD: 2K, 4K, 8K) — видео сверхвысокой чёткости [ 36.49 GB ] День независимости: Возрождение / Independence Day: Resurgence [2016 BDRemux 2160p] DUB + 2xAVO [] sheker187 Скачать
1 | 0
Фильмы (Blu-ray, BD-Remux, HDDVD) [ 27.19 GB ] День независимости: Возрождение / Independence Day: Resurgence [2016 BDRemux 1080p от ExKinoRay] Russian Mafia Скачать
1 | 0
Фильмы (Blu-ray, BD-Remux, HDDVD) [ 41.8 GB ] День независимости: Возрождение / Independence Day: Resurgence [2016 Blu-Ray EUR] Russian Mafia Скачать
1 | 0
Фильмы [HD 720p, 1080p] (Хороший звук DUB, MVO) [ 15.21 GB ] День независимости: Возрождение / Independence Day: Resurgence [2016 BDRip 1080p] DUB [] от HDClub sheker187 Скачать
1 | 0


Последний раз редактировалось: PsYcho (2016-10-31 13:03), всего редактировалось 1 раз

28-11-2019 20:33  

Отключить всю рекламу на сайте

    Дорогой пользователь! Огромная просьба, поблагодарите релизера, оцените раздачу и оставьте свои комментарий, если Вы скачали День независимости: Возрождение через торрент бесплатно! Внесите свою лепту в развитие PiratBit!
    Комментировать посты могут только пользователи прошедшие не сложную регистрацию
    Показать сообщения:    

    День независимости: Возрождение через торрент
    Скачать бесплатно День независимости: Возрождение
    День независимости: Возрождение скачать торрент
    День независимости: Возрождение смотреть онлайн
    Cкачать фильм День независимости: Возрождение бесплатно
    День независимости: Возрождение скачать торрент в хорошем качестве
    День независимости: Возрождение смотреть онлайн бесплатно в хорошем качестве


    Вы не можете начинать темы
    Вы не можете отвечать на сообщения
    Вы не можете редактировать свои сообщения
    Вы не можете удалять свои сообщения
    Вы не можете голосовать в опросах
    Вы не можете прикреплять файлы к сообщениям
    Вы можете скачивать файлы