2 сезон

iTunes

MVO

1

2 сезон

iTunes

iTunes

1 сезон

RePack

30

Новинка

ВАЖНО

ИГРА 18+

pack

RePack

MK11
pack

Легкие деньги

RePack

jed

RePack

fifa19

RePack

RDR2

RePack

NEED FOR SPEED™ PAYBACK

4 сезон

9 сезон

Бесстыжие 9 сезон

Все сериалы

все сериалы на PB.wtf

RePack

FAR CRY 5

Anonymous, доброй ночи, мы не успеваем собрать деньги на оплату серверов за декабрь и январь, помогите нам пожалуйста в это трудное время. В качестве благодарности мы отключим Вам всю рекламу на сайте (укажите свой ник в строку Ваше имя)!

×
  
Magnet ссылка

Сердце без замка (Петр Степин) [2012 г., мелодрама, HDTVRip-AVC] piratbit.org

Сердце без замка через торрент piratbit.org

Размер: 1.37 GB | Добавлен: 4 года 2 мес. назад | Торрент скачан:2 раза
Скачать  

25-10-2016 20:25 Сердце без замка Скачать торрент  

Сердце без замка
Год выпуска: 2012
Страна: Россия
Жанр: мелодрама
Продолжительность: 01:40:18
Перевод: Не требуется
Субтитры: отсутствуют

Режиссер: Петр Степин



В ролях: Ксения Кузнецова, Сергей Мухин, Евгения Гирзекорн, Алёна Козырева, Дарья Баранова, Галина Чернобаева, Илья Капанец, Александр Абрамович, Елена Стеценко, Людмила Баталова, Инна Савенкова, Александр Кашперов (II), Алла Грахова, Сергей Гиргель, Валерий Кащеев, Ольга Василевская

Описание: «Верная супруга и добродетельная мать» – словно о ней, о Марине, эти строки написал поэт Пушкин. Когда-то давно героиня повстречала музыканта Вениамина, который только что пережил душевную травму: от него ушла любимая женщина. Между ними завязался роман… А потом родился Вовка. Марина как-то незаметно для себя стала жить с Вениамином в квартире его мамы – то ли на правах жены, то ли на правах служанки… Марина понимала, что несчастлива, однако её «сердце на замке» - о другом мужчине героиня себе и думать не позволяла...
Однажды из-за границы возвращается Карина, бывшая любовь Вениамина. Давнишний роман вспыхивает с новой силой. Марина на работе застаёт Вениамина в объятиях Карины, а дома слышит, как свекровь договаривается с отцом Карины, адвокатом, что он поможет отобрать у неё сына, её единственную отраду и счастье. Марина понимает, что даже та неустоявшаяся жизнь, с которой она готова была мириться, разрушилась совсем.
Марина вместе с сыном уезжает в санаторий, чтобы на время скрыться и от мужа, и от свекрови, и принять решение, как быть дальше. Неожиданно здесь, в глуши, Мариша встречает человека, готового принять искреннее участие в её жизни. Сердце Марины снова оказывается «без замка».

Качество: HDTVRip-AVC
Формат: MKV
Видео кодек: H.264
Аудио кодек: AC3

Видео: 1024x576 (16:9), 25 fps, AVC MPEG-4 (x264), High@L4.1, 1759 Кbps avg, 0.119 bit/pixel
Аудио#1: 48 kHz, AC3, 2/0 (L,R) ch, ~192 kbps
Общее
Уникальный идентификатор : 233361098139048029985966348660321909462 (0xAF8FB671F100F4BFB91D199C838D7AD6)
Полное имя : C:\Serdce.bez.zamka.2012.HDTVRip.AVC.mkv
Формат : Matroska
Версия формата : Version 2
Размер файла : 1,37 Гбайт
Продолжительность : 1 ч. 40 м.
Общий поток : 1953 Кбит/сек
Дата кодирования : UTC 2016-10-24 04:07:50
Программа кодирования : mkvmerge v6.1.0 ('Old Devil') built on Mar 4 2013 09:10:42
Библиотека кодирования : libebml v1.3.0 + libmatroska v1.4.0

Видео
Идентификатор : 1
Формат : AVC
Формат/Информация : Advanced Video Codec
Профиль формата : High@L4.1
Параметр CABAC формата : Да
Параметр ReFrames формата : 8 кадров
Идентификатор кодека : V_MPEG4/ISO/AVC
Продолжительность : 1 ч. 40 м.
Битрейт : 1759 Кбит/сек
Ширина : 1024 пикселя
Высота : 576 пикселей
Соотношение сторон : 16:9
Режим частоты кадров : Постоянный
Частота кадров : 25,000 кадров/сек
Цветовое пространство : YUV
Субдискретизация насыщенности : 4:2:0
Битовая глубина : 8 бит
Тип развёртки : Прогрессивная
Бит/(Пиксели*Кадры) : 0.119
Размер потока : 1,21 Гбайт (88%)
Библиотека кодирования : x264 core 130 r2273 b3065e6
Настройки программы : cabac=1 / ref=8 / deblock=1:-2:-1 / analyse=0x3:0x133 / me=umh / subme=9 / psy=1 / psy_rd=1.00:0.15 / mixed_ref=1 / me_range=16 / chroma_me=1 / trellis=2 / 8x8dct=1 / cqm=0 / deadzone=21,11 / fast_pskip=1 / chroma_qp_offset=-3 / threads=6 / lookahead_threads=1 / sliced_threads=0 / nr=0 / decimate=1 / interlaced=0 / bluray_compat=0 / constrained_intra=0 / bframes=3 / b_pyramid=2 / b_adapt=2 / b_bias=0 / direct=1 / weightb=1 / open_gop=0 / weightp=2 / keyint=250 / keyint_min=25 / scenecut=40 / intra_refresh=0 / rc_lookahead=60 / rc=2pass / mbtree=1 / bitrate=1759 / ratetol=1.0 / qcomp=0.60 / qpmin=0 / qpmax=69 / qpstep=4 / cplxblur=20.0 / qblur=0.5 / ip_ratio=1.40 / aq=1:1.00
Default : Да
Forced : Нет
Цветовой диапазон : Limited
Основные цвета : BT.709
Характеристики трансфера : BT.709
Коэффициенты матрицы : BT.709

Аудио
Идентификатор : 2
Формат : AC-3
Формат/Информация : Audio Coding 3
Расширение режима : CM (complete main)
Параметр Endianness формата : Big
Идентификатор кодека : A_AC3
Продолжительность : 1 ч. 40 м.
Вид битрейта : Постоянный
Битрейт : 192 Кбит/сек
Каналы : 2 канала
Расположение каналов : Front: L R
Частота : 48,0 КГц
Метод сжатия : С потерями
Размер потока : 138 Мбайт (10%)
Default : Да
Forced : Нет
скриншот  скриншот  скриншот  скриншот  
piratbit.org



Скачать Сердце без замка через торрент http://pic1.kartinco.top/images/11/mhmye.jpg Скачать фильм Сердце без замка через торрент бесплантно в хорошем качестве Описание: «Верная супруга и добродетельная мать» – словно о ней, о Марине, эти строки написал поэт Пушкин. Когда-то давно героиня ... 10 10 3
Торрент: Зарегистрирован [2016-10-25 20:25] · скачан: 2 раз
Статус: √ проверено
Размер: 1.37 GB
Как cкачать? Как скачать Сердце без замка через торрент | UTorrent

% Раздел Тема Автор DL S | L
Наши новые фильмы 2012 [ 1.49 GB ] Сердце без замка [2012 SATRip] -=Cherry=- Скачать
1 | 0

28-11-2019 20:33  

Отключить всю рекламу на сайте

    Дорогой пользователь! Огромная просьба, поблагодарите релизера, оцените раздачу и оставьте свои комментарий, если Вы скачали Сердце без замка через торрент бесплатно! Внесите свою лепту в развитие PiratBit!
    Комментировать посты могут только пользователи прошедшие не сложную регистрацию
    Показать сообщения:    

    Сердце без замка через торрент
    Скачать бесплатно Сердце без замка
    Сердце без замка скачать торрент
    Сердце без замка смотреть онлайн
    Cкачать фильм Сердце без замка бесплатно
    Сердце без замка скачать торрент в хорошем качестве
    Сердце без замка смотреть онлайн бесплатно в хорошем качестве


    Вы не можете начинать темы
    Вы не можете отвечать на сообщения
    Вы не можете редактировать свои сообщения
    Вы не можете удалять свои сообщения
    Вы не можете голосовать в опросах
    Вы не можете прикреплять файлы к сообщениям
    Вы можете скачивать файлы