Доктор Стрэндж

Лицензия

Добыча

MVO

Дом дракона

1 сезон

Тор

Лицензия

Мэверик

Лицензия

Там, где раки поют

MVO

Властелин колец

1 сезон

Ultimate

pack

Рекомендуем

30

Repack

ВАЖНО

ВАЖНО

Ghostwire

RePack

jed

RePack

nioh2

RePack

RDR2

RePack

NEED FOR SPEED™ PAYBACK

RePack

скачать торрент

Кинопоиск HD

Острые козырьки 6 сезон

6 сезон

FAR CRY 6

RePack

скачать торрент

Лицензия

скачать торрент

MVO

1

1 сезон

скачать торрент

1 сезон

скачать торрент

Лицензия

  

В добрый час! (Виктор Эйсымонт) [1956, СССР, драма, мелодрама, DVDRip от AVP Studio]

В добрый час! через торрент piratbit.org

Размер: 1.46 GB | Добавлен: 5 лет 11 мес. назад | Торрент скачан:19 раз
Смотреть онлайн В добрый час! | Скачать   

30-10-2016 16:57 В добрый час! Скачать торрент  

В добрый час!
Страна: СССР
Производство: Киностудия им.Горького

Жанр: драма, мелодрама
Год выпуска: 1956
Продолжительность: 01:32:56

Перевод: Не требуется
Cубтитры: нет
Оригинальная аудиодорожка: русский

Режиссер: Виктор Эйсымонт

В ролях:
Леонид Харитонов, Леонид Давыдов-Субоч, Людмила Чернышёва, Виктор Хохряков, Наталья Малявина, Олег Анофриев, Олег Голубицкий, Галина Самохина, Лариса Нарышкина, Сергей Витомсков...
Полный список актёров

Описание:
По одноименной пьесе В.Розова.
Повесть о выпускниках школы 50-х годов, пытающихся - в меру своих привязанностей и увлечений - выбрать свой собственный путь в жизни. В Москву из далекой сибирской деревни приезжает поступать в институт Алексей. Он останавливается у родственников, в профессорской семье. После провала на приемных экзамена он уезжает домой вместе с сыном профессора Андреем, еще не до конца решившим, чем ему заниматься.

Источник: DVD9 R5
Качество видео: DVDRip
Формат видео: AVI

Видео: 704x528 (4:3), 25 fps, XviD ~ 2048 kbps avg, 0.220 bit/pixel
Аудио: 48 kHz, Dolby Digital AC3 2.0, 192 kbps

Раздача от:
Общее
Полное имя : V.dobriy.chas!1956.DVDRip_[New-team]_by_AVP_Studio.avi
Формат : AVI
Формат/Информация : Audio Video Interleave
Размер файла : 1,46 Гбайт
Продолжительность : 1 ч. 32 м.
Общий поток : 2250 Кбит/сек
Программа кодирования : VirtualDubMod 1.5.10.3 | www.virtualdub-fr.org || (build 2550/release)
Библиотека кодирования : VirtualDubMod build 2550/release

Видео
Идентификатор : 0
Формат : MPEG-4 Visual
Профиль формата : Advanced Simple@L5
Параметр BVOP формата : 1
Параметр QPel формата : Нет
Параметр GMC формата : Без точки перехода
Параметр матрицы формата : Выборочная
Идентификатор кодека : XVID
Идентификатор кодека/Подсказка : XviD
Продолжительность : 1 ч. 32 м.
Битрейт : 2048 Кбит/сек
Ширина : 704 пикселя
Высота : 528 пикселей
Соотношение сторон : 4:3
Частота кадров : 25,000 кадров/сек
Цветовое пространство : YUV
Субдискретизация насыщенности : 4:2:0
Битовая глубина : 8 бит
Тип развёртки : Прогрессивная
Метод сжатия : С потерями
Бит/(Пиксели*Кадры) : 0.220
Размер потока : 1,33 Гбайт (91%)
Библиотека кодирования : XviD 1.2.1 (UTC 2008-12-04)

Аудио
Идентификатор : 1
Формат : AC-3
Формат/Информация : Audio Coding 3
Расширение режима : CM (complete main)
Параметр Endianness формата : Big
Идентификатор кодека : 2000
Продолжительность : 1 ч. 32 м.
Вид битрейта : Постоянный
Битрейт : 192 Кбит/сек
Каналы : 2 канала
Расположение каналов : Front: L R
Частота : 48,0 КГц
Частота кадров : 31,250 кадров/сек (1536 spf)
Метод сжатия : С потерями
Размер потока : 128 Мбайт (9%)
Выравнивание : Разделение по промежуткам
Продолжительность промежутка : 40 мс. (1,00 видеокадр)
Время предзагрузки промежутка : 500 мс



Скачать В добрый час! через торрент http://s020.radikal.ru/i703/1608/3d/606f361667f7.png Скачать, смотреть онлайн В добрый час! бесплантно в хорошем качестве Описание:По одноименной пьесе В.Розова.Повесть о выпускниках школы 50-х годов, пытающихся - в меру своих привязанностей и увлечений - ... 10 10 1
Info! Золотая раздача, скачанное не засчитывается.
Торрент: Зарегистрирован [2016-10-30 16:57] · скачан: 19 раз
Статус: √ проверено
Размер: 1.46 GB
Как cкачать? Как скачать В добрый час! через торрент | UTorrent

% Раздел Тема Автор DL S | L
Кино СССР [ 1.46 GB ] В добрый час! | | DVDRip-AVC от AVP Studio AVP Studio Скачать
1 | 0
Кино СССР [ 745 MB ] В добрый час! | | DVDRip от AVP Studio AVP Studio Скачать
1 | 0

28-11-2019 20:33  

Отключить вcю реклaмy на сайте

    Дорогой пользователь! Огромная просьба, поблагодарите релизера, оцените раздачу и оставьте свои комментарий, если Вы скачали В добрый час! через торрент бесплатно!!
    Комментировать посты могут только пользователи прошедшие не сложную регистрацию
    Показать сообщения:    


    В добрый час! через торрент
    Скачать бесплатно В добрый час!
    В добрый час! скачать торрент
    В добрый час! смотреть онлайн
    Cкачать фильм В добрый час! бесплатно
    В добрый час! скачать торрент в хорошем качестве
    В добрый час! смотреть онлайн бесплатно в хорошем качестве
    Вы не можете начинать темы
    Вы не можете отвечать на сообщения
    Вы не можете редактировать свои сообщения
    Вы не можете удалять свои сообщения
    Вы не можете голосовать в опросах
    Вы не можете прикреплять файлы к сообщениям
    Вы можете скачивать файлы