1 сезон

3 сезон

iTunes

1

iTunes

DUB Netflix

iTunes

13

1 сезон

RePack

30

Deluxe

pack

Легкие деньги

ВАЖНО

ИГРА 18+

pack

RePack

MK11

RePack

jed

RePack

fifa19

RePack

RDR2

RePack

NEED FOR SPEED™ PAYBACK

4 сезон

9 сезон

Бесстыжие 9 сезон

Все сериалы

все сериалы на PB.wtf

RePack

FAR CRY 5

Anonymous, добрый день, мы не успеваем до 1 числа собрать деньги на оплату серверов, помогите нам пожалуйста в это трудное время. В качестве благодарности мы отключим Вам всю рекламу на сайте (укажите свой ник в строку Ваше имя)!

×
  
Magnet ссылка

Искусственный интеллект. Доступ неограничен / I.T. (Джон Мур) [2016 г., триллер, драма, криминал, детектив, HDRip, Дубляж "iTunes"] piratbit.org

Искусственный интеллект. Доступ неограничен через торрент piratbit.org

Размер: 1.46 GB | Добавлен: 4 года 7 мес. назад | Торрент скачан:829 раз
Скачать  

31-10-2016 18:22 Искусственный интеллект. Доступ неограничен Скачать торрент  

Искусственный интеллект. Доступ неограничен / I.T.
Год выпуска: 2016
Страна: Ирландия, Франция, Дания / Voltage Pictures, Voltage Films, Friendly Films (II)
Жанр: триллер, драма, криминал, детектив
Продолжительность: 01:35:58
Перевод: Дубляж (iTunes)

Режиссер: Джон Мур

rating

В ролях: Пирс Броснан, Джейсон Бэрри, Карен Москоу, Кай Риссдал, Брайн Малвей, Мартин Хайнди, Рико Хисон, Анна Фрил, Стефани Скотт, Майкл Лысак

Описание: Вся жизнь Майка Ригана и его семьи построена на последних достижениях искусственного интеллекта и высоких технологий, а его «умный» дом — настоящее произведение технического искусства. Когда Майк пытается прекратить зашедшие слишком далеко отношения своего IT-специалиста Эда с юной дочерью, жизнь Ригана и его семьи оказываются под угрозой. Они попадают в ловушку созданных Риганом «умных технологий», которыми теперь управляет безумный гений Эд, вовлекая Ригана в опасную и непредсказуемую игру.

Качество: HDRip
Формат: AVI
Видео кодек: XviD
Аудио кодек: AC3
Видео: 720x304 (2.37:1), 23.976 fps, XviD build 50 ~1782 kbps avg, 0.34 bit/pixel
Аудио: 48 kHz, AC3 Dolby Digital, 3/2 (L,C,R,l,r) + LFE ch, ~384 kbps

Общее
Полное имя : F:\ФИЛЬМЫ\Искусственный интеллект. Доступ неограничен.2016.D.HDRip.avi
Формат : AVI
Формат/Информация : Audio Video Interleave
Размер файла : 1,46 Гбайт
Продолжительность : 1 ч. 35 м.
Общий поток : 2176 Кбит/сек
Программа кодирования : VirtualDubMod 1.5.10.3 | www.virtualdub-fr.org || (build 2550/release)
Библиотека кодирования : VirtualDubMod build 2550/release

Видео
Идентификатор : 0
Формат : MPEG-4 Visual
Профиль формата : Advanced Simple@L5
Параметр BVOP формата : 1
Параметр QPel формата : Нет
Параметр GMC формата : Без точки перехода
Параметр матрицы формата : Default (MPEG)
Идентификатор кодека : XVID
Идентификатор кодека/Подсказка : XviD
Продолжительность : 1 ч. 35 м.
Битрейт : 1783 Кбит/сек
Ширина : 720 пикселей
Высота : 304 пикселя
Соотношение сторон : 2,35:1
Частота кадров : 23,976 (24000/1001) кадра/сек
Частота кадров в оригинале : 23,976 (23976/1000) кадра/сек
Цветовое пространство : YUV
Субдискретизация насыщенности : 4:2:0
Битовая глубина : 8 бит
Тип развёртки : Прогрессивная
Метод сжатия : С потерями
Бит/(Пиксели*Кадры) : 0.340
Размер потока : 1,20 Гбайт (82%)
Библиотека кодирования : XviD 1.2.1 (UTC 2008-12-04)

Аудио
Идентификатор : 1
Формат : AC-3
Формат/Информация : Audio Coding 3
Расширение режима : CM (complete main)
Параметр Endianness формата : Big
Идентификатор кодека : 2000
Продолжительность : 1 ч. 35 м.
Вид битрейта : Постоянный
Битрейт : 384 Кбит/сек
Каналы : 6 каналов
Расположение каналов : Front: L C R, Side: L R, LFE
Частота : 48,0 КГц
Частота кадров : 31,250 кадров/сек (1536 spf)
Битовая глубина : 16 бит
Метод сжатия : С потерями
Размер потока : 264 Мбайт (18%)
Выравнивание : Разделение по промежуткам
Продолжительность промежутка : 42 мс. (1,00 видеокадр)
Время предзагрузки промежутка : 500 мс.

piratbit.org



Скачать Искусственный интеллект. Доступ неограничен через торрент https://pic.kartinco.top/images/11/hjjjt.jpg Скачать фильм Искусственный интеллект. Доступ неограничен через торрент бесплантно в хорошем качестве Описание: Вся жизнь Майка Ригана и его семьи построена на последних достижениях искусственного интеллекта и высоких технологий, а его ... 10 10 20
Info! Золотая раздача, скачанное не засчитывается.
Торрент: Зарегистрирован [2016-10-31 18:22] · скачан: 829 раз
Статус: √ проверено
Размер: 1.46 GB
Как cкачать? Как скачать Искусственный интеллект. Доступ неограничен через торрент | UTorrent

% Раздел Тема Автор DL S | L
Фильмы 2016 [DVDrip, WEB-DLRip, HDrip] (DUB, MVO) [ 1.61 GB ] Искусственный интеллект. Доступ неограничен / I.T. [2016 BDRip-AVC] - ExKinoRay Enigma2010 Скачать
1 | 0
Фильмы [HD 720p, 1080p] (Хороший звук DUB, MVO) [ 6.9 GB ] Искусственный интеллект. Доступ неограничен / I.T. [2016 BDRip 1080p] Ворон Скачать
1 | 0
Фильмы без перевода [ 15.68 GB ] Искусственный интеллект. Доступ неограничен / I.T. [2016 BD Remux] [Оригинал] smaster Скачать
1 | 0
Фильмы [HD 720p, 1080p] (Хороший звук DUB, MVO) [ 4.6 GB ] Искусственный интеллект. Доступ неограничен / I.T. [2016 BDRip 720p] Ворон Скачать
1 | 0
R.G. Resident & PiratVoice - Фильмы, Видео [ 1.07 GB ] Искусственный интеллект. Доступ неограничен / I.T. [2016 WEB-DLRip-AVC] White Smoke Скачать
1 | 0
Фильмы (WEB-DL 720p, 1080p) [ 3.58 GB ] Искусственный интеллект. Доступ неограничен / I.T. [2016 WEB-DL 1080p White Smoke Скачать
1 | 0
T Релизы по Парсеру [Игры, Сериалы и Фильмы и другое...] [ 700 MB ] Искусственный интеллект. Доступ неограничен / I.T. [2016 WEB-DLRip ] Kirya2002 Скачать
1 | 0

28-11-2019 20:33  

Отключить всю рекламу на сайте

01-11-2016 00:23 Искусственный интеллект. Доступ неограничен Скачать торрент  

скучный фильм, туповатый и предсказуемый.
и "перевод" названия - как можно было про какой-то "ИИ" писать, если ни в названии (IT - Информационные технологии), ни в фильме ни о каком "ИИ" речи не идёт вообще?piratbit.org



01-11-2016 22:11 Искусственный интеллект. Доступ неограничен Скачать торрент  

Да да с названием что то не то, как будто гугл перевел.

И правильно про предсказуемость, вроде как триллер должен держать в напряжении, а тут все ясно понятно как божий день, никакой интриги. Непонятно как они Пирса Броснана затащили туда, или может он сам продюсировал? Пойду пересмотрю титры.piratbit.org



09-11-2016 17:25 Искусственный интеллект. Доступ неограничен Скачать торрент  

Пирс сыграл лошару )piratbit.org



    Дорогой пользователь! Огромная просьба, поблагодарите релизера, оцените раздачу и оставьте свои комментарий, если Вы скачали Искусственный интеллект. Доступ неограничен через торрент бесплатно! Внесите свою лепту в развитие PiratBit!
    Комментировать посты могут только пользователи прошедшие не сложную регистрацию
    Показать сообщения:    

    Искусственный интеллект. Доступ неограничен через торрент
    Скачать бесплатно Искусственный интеллект. Доступ неограничен
    Искусственный интеллект. Доступ неограничен скачать торрент
    Искусственный интеллект. Доступ неограничен смотреть онлайн
    Cкачать фильм Искусственный интеллект. Доступ неограничен бесплатно
    Искусственный интеллект. Доступ неограничен скачать торрент в хорошем качестве
    Искусственный интеллект. Доступ неограничен смотреть онлайн бесплатно в хорошем качестве


    Вы не можете начинать темы
    Вы не можете отвечать на сообщения
    Вы не можете редактировать свои сообщения
    Вы не можете удалять свои сообщения
    Вы не можете голосовать в опросах
    Вы не можете прикреплять файлы к сообщениям
    Вы можете скачивать файлы